<?xml version="1.0" standalone="no"?>
<!DOCTYPE svg PUBLIC "-//W3C//DTD SVG 1.1//EN" "http://www.w3.org/Graphics/SVG/1.1/DTD/svg11.dtd" >
<svg xmlns="http://www.w3.org/2000/svg" xmlns:xlink="http://www.w3.org/1999/xlink" version="1.1">
<metadata></metadata>
<defs>
<font id="hans_kendrickmedium" horiz-adv-x="640" >
<font-face units-per-em="1000" ascent="800" descent="-200" />
<missing-glyph horiz-adv-x="300" />
<glyph unicode=" "  horiz-adv-x="300" />
<glyph unicode="&#x09;" horiz-adv-x="300" />
<glyph unicode="&#xa0;" horiz-adv-x="300" />
<glyph unicode="!" horiz-adv-x="314" d="M110 760h95v-563h-95v563zM157 107c32.2607 0 58 -24.5127 58 -58c0 -34.3301 -25.6426 -59 -58 -59c-32.3564 0 -58 24.6699 -58 59c0 33.4863 25.7383 58 58 58z" />
<glyph unicode="&#x22;" horiz-adv-x="393" d="M68 750h94l-20 -238h-54zM228 750h94l-20 -238h-54z" />
<glyph unicode="#" horiz-adv-x="745" d="M557 523h107l-9 -66h-108l-31 -228h106l-8 -66h-107l-23 -163h-78l23 163h-165l-23 -163h-78l23 163h-107l9 66h108l32 228h-107l9 66h106l23 163h78l-23 -163h165l23 163h78zM438 229l32 228h-165l-32 -228h165z" />
<glyph unicode="$" horiz-adv-x="593" d="M408.063 611.774c-19.6553 24.9824 -39.1641 41.3887 -68.0654 51.9736v-253.918c94.0039 -38.2451 182 -87.8428 182 -207.26c0 -103.912 -80.7402 -179.71 -182 -207.264v-85.3086h-82v78.8916c-88.957 9.56055 -163.91 55.1338 -208.882 139.876l-4.92188 9.27441 l85.0293 35.8711l4.44727 -7.55078c27.791 -47.1826 70.585 -75.5889 124.328 -84.3174v263.081c-89.6504 37.4258 -177 83.5117 -177 199.423c0 101.073 72.0371 187.151 177 213.371v82.0811h82v-80.8535c62.7129 -13.75 110.97 -47.293 153.218 -106.654 l6.94336 -9.75586l-87.3408 -37.0059zM173.998 548.997c0 -42.8555 26.9336 -71.7891 84 -101.771v220.982c-55.6523 -25.1895 -84 -70.6592 -84 -119.211zM428.998 197.996c0 50.3047 -29.7139 78.5391 -89 109.719v-222.142c57.6113 24.3555 89 64.5059 89 112.423z" />
<glyph unicode="%" horiz-adv-x="719" d="M228 760c86.5615 0 157 -68.29 157 -153s-70.4385 -153 -157 -153c-86.4971 0 -158 68.2021 -158 153s71.5029 153 158 153zM59.8301 0l487.667 750h110.674l-487.667 -750h-110.674zM228.001 539c40.4922 0 73 30.2822 73 68c0 36.8066 -32.6143 68 -73 68 s-73 -31.1924 -73 -68c0 -37.7188 32.5088 -68 73 -68zM491.001 296c85.4854 0 158 -68.1445 158 -153s-72.5146 -153 -158 -153c-86.4971 0 -158 68.2021 -158 153s71.5029 153 158 153zM491.001 75c38.5342 0 73 30.4785 73 68c0 38.4336 -34.3564 68 -73 68 c-40.7139 0 -74 -29.5215 -74 -68c0 -37.5693 33.3936 -68 74 -68z" />
<glyph unicode="&#x26;" horiz-adv-x="712" d="M504.981 229.968l114.985 112.604l67.1426 -65.1826l-115 -112.615l113.03 -109.732l-67.1426 -65.1826l-113 113l-41.9287 -41.9287c-47.8691 -47.8691 -111.48 -73.9287 -179.071 -73.9287c-67.5742 0 -132.142 25.3359 -180.09 72.0586 c-49.4551 48.6992 -74.1602 112.338 -74.1602 175.941c0 63.6123 24.6768 127.213 74.1963 175.976l42.1289 40.2148c-31.2852 35.1699 -45.8271 76.5547 -45.8271 118.907c0 46.0391 17.96 92.0225 53.6553 127.325c35.9844 35.0645 83.043 52.5762 129.974 52.5762 c46.9092 0 93.8252 -18.0293 129.223 -53.9551c33.8008 -33.8008 51.9023 -78.2168 51.9023 -125.169c0 -46.9619 -18.0215 -96.248 -55.3691 -140.339l-7.08789 -8.36816l-65.8604 67.127l5.48047 6.91602c20.1367 25.4102 29.0928 51.1279 29.0928 74.1396 c0 22.4033 -8.38086 42.6328 -24.3262 58.5781c-17.5713 17.5713 -40.4805 26.3203 -63.3037 26.3203c-22.8262 0 -45.4023 -8.46484 -62.5078 -25.5078c-17.6611 -17.1455 -26.3672 -39.3164 -26.3672 -61.623c0 -22.293 8.73926 -44.5098 26.333 -61.5898zM283.622 81.5 c40.8467 0 81.7139 15.4541 113.294 46.5625l41.04 41.8955l-224.988 226.871l-41.873 -41.873c-31.0547 -31.5254 -46.5977 -72.4893 -46.5977 -113.456s15.542 -81.9287 46.5977 -113.455c31.0088 -31.0088 71.6914 -46.5449 112.527 -46.5449z" />
<glyph unicode="'" horiz-adv-x="233" d="M70 750h93l-20 -238h-53z" />
<glyph unicode="(" horiz-adv-x="475" d="M366.31 -150.93l8.68945 -1.125v-91.8457l-10.8604 0.9375c-231.375 19.5928 -264.14 364.832 -264.14 502.972c0 137.143 32.7383 484.358 264.14 503.954l10.8604 0.9375v-91.8457l-8.69043 -1.12598c-146.997 -19.0371 -175.309 -318.985 -175.309 -411.919 c0 -93.8955 28.2861 -391.898 175.31 -410.939z" />
<glyph unicode=")" horiz-adv-x="475" d="M108.69 671.93l-8.68945 1.125v91.8457l10.8604 -0.9375c231.401 -19.5957 264.14 -366.812 264.14 -503.954c0 -138.14 -32.7646 -483.379 -264.14 -502.972l-10.8604 -0.9375v91.8457l8.69043 1.12598c147.022 19.041 175.309 317.042 175.309 410.939 c0 92.9316 -28.3115 392.882 -175.31 411.919z" />
<glyph unicode="*" horiz-adv-x="360" d="M325 683v-59l-121 15l75 -97l-53 -30l-47 112l-47 -112l-53 30l75 97l-121 -15v59l121 -15l-75 97l53 30l47 -112l47 112l53 -30l-75 -97z" />
<glyph unicode="+" horiz-adv-x="698" d="M390 278h248v-80h-248v-224h-82v224h-248v80h248v224h82v-224z" />
<glyph unicode="," horiz-adv-x="254" d="M45.7803 -137l48.0371 238h116.505l-87.3398 -238h-77.2021z" />
<glyph unicode="-" horiz-adv-x="468" d="M408 271v-65h-348v65h348z" />
<glyph unicode="." horiz-adv-x="274" d="M136 129c37.5088 0 70 -31.3154 70 -70c0 -38.8447 -32.7207 -69 -70 -69c-38.4717 0 -69 30.5273 -69 69c0 38.3115 30.3008 70 69 70z" />
<glyph unicode="/" horiz-adv-x="651" d="M538 760h74l-509 -1005h-74z" />
<glyph unicode="0" horiz-adv-x="692" d="M346 766c200.976 0 276 -236.386 276 -389c0 -173.598 -87.4463 -389 -276 -389c-188.552 0 -276 215.405 -276 389c0 152.618 75.0215 389 276 389zM346 79c131.138 0 180 172.547 180 296.064c0 121.896 -44.0195 299.936 -180 299.936 c-134.001 0 -180 -178.166 -180 -297.032c0 -129.462 45.8154 -298.968 180 -298.968z" />
<glyph unicode="1" horiz-adv-x="409" d="M100 750h164v-750h-94v659h-70v91z" />
<glyph unicode="2" horiz-adv-x="632" d="M183.958 522.086l-0.834961 -9.08594h-96.0811l0.999023 10.9121c13.3496 145.817 104.107 242.088 235.959 242.088c130.031 0 238 -93.7793 238 -228.046c0 -58.0312 -22.0879 -106.859 -51.6221 -150.53c-29.6006 -44.7627 -65.9639 -82.1201 -99.707 -121.775 l-153.154 -176.964h303.483v-88.6846h-503.558l304.961 350.13c26.1914 29.3516 51.6387 56.9551 72.123 89.166c20.4248 31.1729 32.4727 62.1943 32.4727 96.8193c0 79.3057 -61.5088 138.885 -141 138.885c-81.8164 0 -133.347 -58.2422 -142.041 -152.914z" />
<glyph unicode="3" horiz-adv-x="633" d="M177.811 557.063l-1.59082 -8.06543h-94.0078l1.92285 11.6309c20.6592 124.987 112.287 205.369 214.866 205.369c111.392 0 208 -89.8936 208 -199.862c0 -62.6289 -30.6465 -111.396 -74.6895 -150.216c75.6201 -52.8223 110.689 -118.846 110.689 -191.986 c0 -127.382 -111.45 -235.935 -244 -235.935c-118.253 0 -219.056 87.9912 -242.832 216.177l-2.19336 11.8242h91.877l1.8623 -7.62793c20.0488 -82.1045 81.1992 -129.372 151.285 -129.372c80.626 0 151 63.499 151 145.934c0 85.0195 -70.8428 142.067 -151 142.067h-32 v91h32c76.7197 0 114 55.7861 114 108.021c0 57.2207 -46.8311 108.978 -114 108.978c-57.1416 0 -106.858 -45.3242 -121.189 -117.937z" />
<glyph unicode="4" horiz-adv-x="673" d="M506 229h96v-92h-96v-137h-91v137h-406.812l497.812 664.385v-572.385zM415 538.581l-228.205 -309.581h228.205v309.581z" />
<glyph unicode="5" horiz-adv-x="633" d="M547 659l-230.164 0.000976562l-44.5049 -170.689c17.7354 2.27246 31.0332 2.68848 41.6689 2.68848c142.888 0 249 -114.677 249 -251.99c0 -148.827 -116.129 -251.01 -265 -251.01c-87.502 0 -167.654 43.0645 -227.197 128.272l-5.61523 8.03516l75.1953 54.8037 l5.83398 -8.41211c41.6016 -59.9834 96.6699 -91.6982 154.783 -91.6982c85.9697 0 167 64.9287 167 161.984c0 92.3945 -77.252 161.015 -167 161.015c-22.5967 0 -48.6445 -4.73535 -81.0996 -14.5703l-5.10449 -1.54688l-53.0146 42.6143l81.3809 321.503h303.838v-91z " />
<glyph unicode="6" horiz-adv-x="700" d="M395.75 750l109.462 -0.000976562l-190.622 -262.177c16.1504 2.40723 30.7461 3.17676 47.4102 3.17676c138.918 0 248 -115.544 248 -251.01c0 -142.882 -118.727 -251.99 -260 -251.99c-144.296 0 -260 108.535 -260 250.428 c0 61.4219 28.2051 119.723 64.7686 171.186zM350 78.999c91.4668 0 165 71.2441 165 160.984c0 88.7285 -73.5078 160.015 -165 160.015c-91.4932 0 -165 -71.2871 -165 -160.015c0 -89.7412 73.5342 -160.984 165 -160.984z" />
<glyph unicode="7" horiz-adv-x="583" d="M62 659v91h550.804l-469.187 -750h-111.427l414 659h-384.19z" />
<glyph unicode="8" horiz-adv-x="628" d="M447.399 415.984c72.1865 -49.4893 110.599 -116.144 110.599 -192.05c0 -128.438 -113.503 -235.935 -244 -235.935s-244 107.497 -244 235.935c0 76.2451 40.4971 143.32 109.723 191.95c-49.6494 43.9131 -73.7217 93.3281 -73.7217 150.253 c0 109.926 95.5996 199.862 208 199.862c112.401 0 208 -89.9365 208 -199.862c0 -57.2139 -26.3633 -107.609 -74.5996 -150.153zM313.998 458c62.6367 0 115 48.4971 115 108.021c0 58.6543 -52.5439 108.979 -115 108.979c-63.4424 0 -115 -50.2559 -115 -108.978 c0 -59.5908 51.3779 -108.021 115 -108.021zM313.998 78.998c84.585 0 152 64.3232 152 145.933c0 81.3799 -67.0742 142.067 -152 142.067s-152 -60.6875 -152 -142.067c0 -81.6094 67.415 -145.933 152 -145.933z" />
<glyph unicode="9" horiz-adv-x="700" d="M303.25 -12l-109.462 0.000976562l190.622 262.177c-16.1504 -2.40723 -30.7461 -3.17676 -47.4102 -3.17676c-138.918 0 -248 115.544 -248 251.01c0 142.882 118.727 251.99 260 251.99c144.296 0 260 -108.535 260 -250.428 c0 -61.4219 -28.2051 -119.723 -64.7686 -171.186zM349 338.001c91.4932 0 165 71.2861 165 160.015c0 89.7412 -73.5342 160.984 -165 160.984c-91.4668 0 -165 -71.2441 -165 -160.984c0 -88.7285 73.5078 -160.015 165 -160.015z" />
<glyph unicode=":" horiz-adv-x="274" d="M136 480c37.5088 0 70 -31.3154 70 -70c0 -38.8447 -32.7207 -69 -70 -69c-38.4717 0 -69 30.5273 -69 69c0 38.3115 30.3008 70 69 70zM136 129c37.5088 0 70 -31.3154 70 -70c0 -38.8447 -32.7207 -69 -70 -69c-38.4717 0 -69 30.5273 -69 69 c0 38.3115 30.3008 70 69 70z" />
<glyph unicode=";" horiz-adv-x="254" d="M137 480c37.5088 0 70 -31.3154 70 -70c0 -38.8447 -32.7207 -69 -70 -69c-38.4717 0 -69 30.5273 -69 69c0 38.3115 30.3008 70 69 70zM45.7803 -117l48.0371 238h116.505l-87.3398 -238h-77.2021z" />
<glyph unicode="&#x3c;" horiz-adv-x="575" d="M167 242l338 -179l-34 -64l-401 212v65l402 195l32 -64z" />
<glyph unicode="=" horiz-adv-x="575" d="M505 350v-60h-435v60h435zM505 179v-60h-435v60h435z" />
<glyph unicode="&#x3e;" horiz-adv-x="575" d="M503 276v-65l-400 -212l-34 64l337 179l-336 165l32 64z" />
<glyph unicode="?" horiz-adv-x="501" d="M128.936 546h-90.9082c9.33301 127.554 100.347 214 210.974 214c114.574 0 210 -94.4951 210 -212c0 -75.2539 -43.7061 -125.848 -84.9297 -167.071c-29.0977 -29.0977 -79.0713 -71.166 -79.0713 -110.929v-73h-92v74c0 130.69 164 170.006 164 277 c0 64.584 -42.6777 126 -118 126c-70.2021 0 -111.529 -53.0801 -120.064 -128zM249.001 107c32.2607 0 58 -24.5127 58 -58c0 -34.3301 -25.6426 -59 -58 -59c-32.3564 0 -58 24.6699 -58 59c0 33.4863 25.7383 58 58 58z" />
<glyph unicode="@" horiz-adv-x="541" d="M319 480c67.041 0 147.001 -34.3623 147.001 -116.438v-247.68h-67v9.41895c-22.6475 -13.8379 -44.6621 -18.3008 -66 -18.3008c-72.7803 0 -133 60.2197 -133 133s60.2197 133 133 133c21.54 0 45.915 -7.18652 65.999 -19.6123v13.6113c0 33.249 -42.9229 45 -80 45 c-97.2295 0 -177 -79.7705 -177 -177c0 -97.2549 79.8076 -178 177 -178h142v-67h-142c-134.789 0 -244 110.259 -244 245s109.211 245 244 245zM333.001 174.001c37.2783 0 66.001 28.7217 66.001 66s-28.7207 66 -66 66c-36.2246 0 -65 -28.6885 -65 -66 s28.7754 -66 64.999 -66z" />
<glyph unicode="A" horiz-adv-x="670" d="M-10.0889 0l345.089 795.665l345.089 -795.665h-101.721l-68 161h-349.736l-68 -161h-102.721zM335.03 570.085l-138.027 -331.084h276.956z" />
<glyph unicode="B" horiz-adv-x="590" d="M80 0l0.000976562 749.999h242c119.573 0 218 -95.9277 218 -213.312c0 -50.5918 -19.7646 -111.993 -73.8105 -153.193c65.4658 -41.8896 93.8096 -113.4 93.8096 -170.183c0 -117.384 -98.4268 -213.312 -218 -213.312h-262zM175.001 656.999v-231h169 c68.7471 0 104 44.9004 104 110.228c0 65.707 -55.6055 120.772 -126 120.772h-147zM175.001 337.999v-245.001h167c70.3945 0 126 55.1963 126 121.06c0 65.2451 -55.0859 123.941 -124 123.941h-169z" />
<glyph unicode="C" horiz-adv-x="761" d="M671.5 172.599l67.4414 -62.7969c-85.6797 -82.6201 -182.397 -119.802 -283.941 -119.802c-217.533 0 -395 172.975 -395 385s177.467 384.999 395 384.999c98.5068 0 197.179 -36.1016 282.941 -118.802l-66.5791 -63.6777 c-78.4424 69.6172 -146.537 89.4795 -216.362 89.4795c-166.472 0 -302 -131.041 -302 -292s135.528 -292 302 -292c69.7656 0 134.873 19.7744 216.5 89.5996z" />
<glyph unicode="D" horiz-adv-x="695" d="M80 0v750h179c235.598 0 396 -137.786 396 -373.052c0 -234.189 -160.229 -376.948 -396 -376.948h-179zM176 657v-563.999h83c186.416 0 303 100.831 303 283.931c0 182.981 -116.398 280.068 -303 280.068h-83z" />
<glyph unicode="E" horiz-adv-x="542" d="M175 93h307v-93h-402v750h402v-93h-307v-235h268v-94h-268v-235z" />
<glyph unicode="F" horiz-adv-x="502" d="M80 750h402v-93h-307v-235h278v-94h-278v-328h-95v750z" />
<glyph unicode="G" horiz-adv-x="830" d="M444 422h305.999v-422h-92v41.9873c-70.2832 -37.8496 -127.844 -51.9873 -193 -51.9873c-217.533 0 -395 172.975 -395 385s177.467 385 395 385c89.2236 0 177.737 -28.9209 260.43 -98.3418l-61.5039 -68.6025c-66.6855 50.9951 -130.319 73.9443 -198.926 73.9443 c-166.472 0 -302 -131.041 -302 -292s135.528 -292 302 -292c68.5068 0 136.155 21.9521 193.001 66.9346v178.065h-214v94z" />
<glyph unicode="H" horiz-adv-x="713" d="M542 750h91v-750h-91v328h-371v-328h-91v750h91v-328h371v328z" />
<glyph unicode="I" horiz-adv-x="250" d="M78 750h95v-750h-95v750z" />
<glyph unicode="J" horiz-adv-x="357" d="M180 750h97v-612.872c0 -82.4502 -69.5176 -147.128 -150 -147.128c-23.3076 0 -48.6035 1.08691 -84.4902 10.3154l-7.50977 1.93066v98.1943l12.873 -3.8623c39.168 -11.75 64.0195 -13.5781 79.127 -13.5781c34.3506 0 53 26.1035 53 56.3115v610.688z" />
<glyph unicode="K" horiz-adv-x="605" d="M620.051 750l-382.946 -375l382.946 -375h-131.22l-316.831 319.703v-319.703h-92v750h92v-319.703l316.831 319.703h131.22z" />
<glyph unicode="L" horiz-adv-x="446" d="M175 93h241v-93h-336v750h95v-657z" />
<glyph unicode="M" horiz-adv-x="872" d="M436 303.195l356 497.988v-801.184h-91v529.125l-265 -366.182l-265 366.182v-529.125h-91v801.184z" />
<glyph unicode="N" horiz-adv-x="740" d="M569 188.462v561.538h91v-805.208l-489 603v-548.792h-91v799.462z" />
<glyph unicode="O" horiz-adv-x="894" d="M447 760c217.483 0 397 -172.906 397 -385c0 -213.072 -179.539 -385 -397 -385s-397 171.928 -397 385c0 212.094 179.517 385 397 385zM447 83c165.538 0 304 131.151 304 292s-138.462 292 -304 292c-166.532 0 -304 -131.124 -304 -292 c0 -160.849 138.462 -292 304 -292z" />
<glyph unicode="P" horiz-adv-x="554" d="M80 0v750h235c120.558 0 219 -96.2578 219 -214.989c0 -118.775 -98.5068 -214.011 -219 -214.011h-141v-321h-94zM174 657v-242h141c70.6289 0 127 53.4229 127 120.039c0 66.751 -56.5684 121.961 -127 121.961h-141z" />
<glyph unicode="Q" horiz-adv-x="914" d="M774 -15.1426c-2.66113 2.66113 -5.01172 4.91113 -7.07129 7.38477l-75.0234 74.708c-75.8369 -52.9092 -154.249 -76.9521 -234.905 -76.9521c-217.461 0 -397 171.928 -397 385.001c0 212.094 179.517 385 397 385s397 -172.936 397 -385.064 c0 -90.2852 -28.7021 -170.843 -93.4639 -247.995l79.6064 -77.6035zM528.858 225.131l66.1426 63.9531l99.1934 -95.9092c47.2041 58.6279 66.8066 118.331 66.8066 181.824c0 160.849 -138.462 292 -304 292c-166.532 0 -304 -131.124 -304 -292s137.468 -292 304 -292 c58.7441 0 111.012 14.7666 167.287 49.8623z" />
<glyph unicode="R" horiz-adv-x="581" d="M533 535.714c0 -84.1182 -51.3906 -159.759 -139.239 -196.938l173.398 -338.777h-103.348l-165 331h-123.812v-331h-95v750h235c119.595 0 218 -95.9639 218 -214.285zM175.001 656.999l0.000976562 -242h140c70.5586 0 126 53.3281 126 120.039 c0 65.8984 -55.7031 121.961 -126.001 121.961h-140z" />
<glyph unicode="S" horiz-adv-x="543" d="M474.16 649.78l-85.1807 -41.751c-30.4346 40.8965 -66.208 57.9707 -105.979 57.9707c-69.4492 0 -128 -56.9561 -128 -123.351c0 -54.7432 43.0693 -82.4268 103.054 -108.645c100.188 -42.5137 244.946 -77.7119 244.946 -229.355 c0 -128.127 -122.831 -214.649 -244 -214.649c-87.707 0 -179.178 49.1045 -228.886 145.414l84.6602 38.3848c33.2168 -60.7402 91.8252 -89.7988 144.226 -89.7988c72.4414 0 151 51.1328 151 123.351c0 77.3613 -96.0586 109.048 -166.809 137.68 c-85.8516 33.9355 -181.192 82.0781 -181.192 200.32c0 119.066 100.511 214.649 221 214.649c71.6152 0 138.708 -36.1699 191.16 -110.22z" />
<glyph unicode="T" horiz-adv-x="473" d="M-5 750h483v-93h-197v-657h-89v657h-197v93z" />
<glyph unicode="U" horiz-adv-x="650" d="M483 750l92 0.000976562v-534.923c0 -119.979 -110.977 -225.076 -250 -225.076c-137.007 0 -250 105.023 -250 225.076v534.923h92v-533.018c0 -66.8037 63.8975 -133.983 158 -133.983c96.0762 0 158 67.0674 158 133.982v533.018z" />
<glyph unicode="V" horiz-adv-x="670" d="M335.019 163.155l243.303 586.845h101.716l-345.037 -802.86l-345.037 802.86h102.727z" />
<glyph unicode="W" horiz-adv-x="975" d="M634.922 150.285l282.736 599.715h103.108l-384.65 -796.209l-148.056 306.115l-146.08 -306.169l-387.803 796.263h104.163l282.736 -599.715l94.8594 197.772l-187.642 401.942h104.088l135.616 -292.243l135.616 292.243h103.052l-186.61 -401.931z" />
<glyph unicode="X" horiz-adv-x="602" d="M301 305.831l-201.613 -305.831h-107.975l255.607 376.952l-252.593 373.048h107.965l198.63 -301.84l199.604 301.84h106.95l-252.593 -373.048l255.607 -376.952h-107.975z" />
<glyph unicode="Y" horiz-adv-x="597" d="M298.021 448.16l199.604 301.84h107.98l-262.604 -386.696v-363.304h-90v363.313l-261.563 386.687h107.954z" />
<glyph unicode="Z" horiz-adv-x="628" d="M606.2 750l-432 -662.338h423.8v-87.6621h-586.178l431 660h-401.822v90h565.2z" />
<glyph unicode="[" horiz-adv-x="308" d="M141 -151h107v-94h-188v995h188v-94h-107v-807z" />
<glyph unicode="\" horiz-adv-x="651" d="M113 760l509 -1005h-74l-509 1005h74z" />
<glyph unicode="]" horiz-adv-x="308" d="M60 656v94h188v-995h-190v94h109v807h-107z" />
<glyph unicode="^" horiz-adv-x="411" d="M39 924l171 -361h-74l-136 309l-136 -309h-73l171 361h77z" />
<glyph unicode="_" horiz-adv-x="698" d="M628 0v-65h-558v65h558z" />
<glyph unicode="`" horiz-adv-x="-20" d="M81.3896 548l-164.339 202h133.402l119.831 -202h-88.8945z" />
<glyph unicode="a" d="M560 0h-90v50.5352c-45.9971 -39.7578 -105.271 -60.5352 -165 -60.5352c-140.53 0 -255 109.98 -255 245s114.47 245 255 245c59.9355 0 120.176 -21.791 165 -60.5352v50.5352h90v-470zM470 235c0 84.9707 -74.5479 155 -165 155s-165 -70.0303 -165 -155 c0 -84.9707 74.5479 -155 165 -155s165 70.0303 165 155z" />
<glyph unicode="b" d="M80 750h90v-330.535c45.9971 39.7578 105.271 60.5352 165 60.5352c140.53 0 255 -109.98 255 -245s-114.47 -245 -255 -245c-59.9355 0 -120.176 21.791 -165 60.5352v-50.5352h-90v750zM500 235c0 84.9707 -74.5479 155 -165 155s-165 -70.0303 -165 -155 c0 -84.9707 74.5479 -155 165 -155s165 70.0303 165 155z" />
<glyph unicode="c" horiz-adv-x="580" d="M455.786 178.887l82.4326 -36.7637c-38.6699 -91.9717 -134.306 -152.124 -233.218 -152.124c-140.53 0 -255 109.98 -255 245s114.47 245 255 245c102.101 0 192.582 -61.4756 234.121 -153.9l-82.2822 -35.1074c-26.3789 60.2939 -86.7783 99.0088 -151.839 99.0088 c-90.4521 0 -165 -70.0303 -165 -155c0 -84.9707 74.5479 -155 165 -155c65.0801 0 125.404 38.7236 150.785 98.8867z" />
<glyph unicode="d" d="M560 0h-90v50.5352c-45.9971 -39.7578 -105.271 -60.5352 -165 -60.5352c-140.53 0 -255 109.98 -255 245s114.47 245 255 245c59.9355 0 120.176 -21.791 165 -60.5352v330.535h90v-750zM470 235c0 84.9707 -74.5479 155 -165 155s-165 -70.0303 -165 -155 c0 -84.9707 74.5479 -155 165 -155s165 70.0303 165 155z" />
<glyph unicode="e" horiz-adv-x="610" d="M560 234.623l0.00195312 -9.62207h-419.696c5.4043 -80.6807 77.6924 -145 164.695 -145c65.0801 0 125.404 38.7236 150.785 98.8867l82.4316 -36.7627c-38.6699 -91.9717 -134.306 -152.124 -233.218 -152.124c-140.53 0 -255 109.98 -255 245s114.47 245 255 245 s255 -110.15 255 -245.378zM305.002 390.001c-62.2812 0 -119.391 -33.0518 -148.571 -85h297.142c-29.75 52.9609 -86.6885 85 -148.57 85z" />
<glyph unicode="f" horiz-adv-x="323" d="M307.856 755.741l5.14355 -2.85742v-103.986l-16.332 13.3633c-9.12305 7.46387 -20.6572 11.7393 -35.668 11.7393c-33.5137 0 -60 -26.4873 -60 -60v-144h112v-90h-112v-380h-90v380h-71v90h71v144c0 82.5381 67.4619 150 150 150 c19.5693 0 35.0947 -1.72461 46.8564 -8.25879z" />
<glyph unicode="g" d="M470 418.86l-0.000976562 51.1387h90v-460c0 -140.53 -114.47 -255 -255 -255c-103.046 0 -191.569 60.4863 -233.104 151.862l82.2656 37.1465c26.4824 -60.5322 82.8193 -99.0078 150.838 -99.0078c90.4521 0 165 74.5479 165 165v41.1396 c-46.9385 -39.96 -102.259 -61.1396 -164.999 -61.1396c-140.53 0 -255 109.98 -255 245s114.47 245 255 245c62.9111 0 119.259 -22.1992 165 -61.1396zM304.999 79.999c90.4521 0 165 70.0303 165 155c0 85.9482 -73.5078 155 -165 155 c-90.4521 0 -165 -70.0303 -165 -155c0 -84.9707 74.5479 -155 165 -155z" />
<glyph unicode="h" horiz-adv-x="535" d="M285 480c106.184 0 180 -83.8896 180 -184.32v-295.68h-90v292.976c0 56.3486 -38.8145 97.0244 -97 97.0244c-55.3076 0 -108 -42.4209 -108 -94.1709v-295.829h-90v750h90v-313.188c28.46 25.8125 66.9111 43.1885 115 43.1885z" />
<glyph unicode="i" horiz-adv-x="274" d="M137 657c34.4834 0 62 -27.5166 62 -62s-27.5166 -62 -62 -62s-62 27.5166 -62 62s27.5166 62 62 62zM92 0v470h90v-470h-90z" />
<glyph unicode="j" horiz-adv-x="274" d="M137 657c34.4834 0 62 -27.5166 62 -62s-27.5166 -62 -62 -62s-62 27.5166 -62 62s27.5166 62 62 62zM92 -245v715h90v-715h-90z" />
<glyph unicode="k" horiz-adv-x="498" d="M475.754 470l-242.296 -224.393l269.591 -245.607h-130.137l-202.912 199.172v-199.172h-90v750h90v-456.768l175.843 176.768h129.911z" />
<glyph unicode="l" horiz-adv-x="250" d="M170 750v-750h-90v750h90z" />
<glyph unicode="m" horiz-adv-x="830" d="M580 480c108.25 0 179.999 -84.9609 179.999 -184.319v-295.68h-90v292.976c0 52.4951 -41.1826 97.0244 -96 97.0244c-55.3916 0 -109 -42.5244 -109 -94.1709v-295.829h-90v292.976c0 52.5322 -40.1299 97.0244 -97 97.0244c-55.3076 0 -108 -42.4209 -108 -94.1709 v-295.829h-90v470h90v-33.0039c32.3057 29.4648 73.1426 43.0029 115.001 43.0029c59.667 0 109.045 -28.0186 139.75 -68.6133c40.1602 44.0859 96.6982 68.6133 155.25 68.6133z" />
<glyph unicode="n" horiz-adv-x="535" d="M285 480c108.25 0 179.999 -84.9609 179.999 -184.319v-295.68h-90v292.976c0 52.5322 -40.1299 97.0244 -97 97.0244c-55.3076 0 -108 -42.4209 -108 -94.1709v-295.829h-90v470h90v-33.0039c32.3057 29.4648 73.1426 43.0029 115.001 43.0029z" />
<glyph unicode="o" horiz-adv-x="610" d="M560 235c0 -135.02 -114.47 -245 -255 -245s-255 109.98 -255 245s114.47 245 255 245s255 -109.98 255 -245zM470 235c0 84.9707 -74.5479 155 -165 155s-165 -70.0303 -165 -155c0 -84.9707 74.5479 -155 165 -155s165 70.0303 165 155z" />
<glyph unicode="p" d="M80 470h90v-50.5352c45.9971 39.7578 105.271 60.5352 165 60.5352c138.589 0 255 -111.847 255 -245s-116.412 -245 -255 -245c-59.9355 0 -120.176 21.791 -165 60.5352v-295.535h-90v715zM170 235c0 -84.9707 74.5479 -155 165 -155s165 70.0303 165 155 c0 84.9707 -74.5479 155 -165 155s-165 -70.0303 -165 -155z" />
<glyph unicode="q" d="M560 -245h-90v295.535c-45.9971 -39.7578 -105.271 -60.5352 -165 -60.5352c-140.53 0 -255 109.98 -255 245s114.47 245 255 245c59.9355 0 120.176 -21.791 165 -60.5352v50.5352h90v-715zM140 235c0 -84.9707 74.5479 -155 165 -155s165 70.0303 165 155 c0 84.9707 -74.5479 155 -165 155s-165 -70.0303 -165 -155z" />
<glyph unicode="r" horiz-adv-x="365" d="M80 0l0.000976562 470.001h90v-39.9717c27.415 31.8555 65.2705 50.1172 109.055 50.1172c18.96 0 44.9453 -4.14551 65.9453 -13.0859v-90.9766l-13.1895 4.43848c-19.0684 6.41699 -36.7295 9.40723 -52.7314 9.40723c-65.7812 0 -109.08 -47.9209 -109.08 -134.054 v-255.876h-90z" />
<glyph unicode="s" horiz-adv-x="383" d="M329.116 391.111l-82.1309 -36.4385c-10.3828 21.6318 -31.9629 35.3281 -54.9844 35.3281c-33.5137 0 -60 -25.2256 -60 -57.1426c0 -68.4385 221 -47.2734 221 -200c0 -84.5566 -81.6836 -142.857 -164 -142.857c-67.6406 0 -138.092 41.0381 -158.599 111.194 l84.5078 32.1445c4.05664 -30.0215 40.4209 -53.3398 74.0898 -53.3398c36.75 0 74 23.6182 74 57.1426c0 69.4834 -221 48.1387 -221 200c0 78.6074 67.4619 142.857 150 142.857c59.918 0 112.537 -34.3887 137.116 -88.8887z" />
<glyph unicode="t" horiz-adv-x="338" d="M40 470h81v167h90v-167h87v-90h-87v-380h-90v380h-81v90z" />
<glyph unicode="u" horiz-adv-x="517" d="M362 470h90v-294.72c0 -102.333 -87.5283 -185.279 -194 -185.279c-106.524 0 -193 83.0166 -193 185.279v294.72h90v-292.024c0 -52.6875 47.6104 -97.9756 103 -97.9756c57.4434 0 104 45.252 104 97.9756v292.024z" />
<glyph unicode="v" horiz-adv-x="510" d="M396.406 470h99.0146l-218.937 -470h-38.9189l-223.106 470h100.046l143.356 -323.272z" />
<glyph unicode="w" horiz-adv-x="770" d="M113.684 470l131.16 -316.896l126.376 316.896h25.5371l127.363 -316.972l131.194 316.972h99.9258l-212.681 -470h-42.3477l-116.213 292.438l-116.213 -292.438h-42.373l-210.596 470h98.8662z" />
<glyph unicode="x" horiz-adv-x="537" d="M125.744 470l142.282 -174.223l143.25 174.223h116.877l-201.213 -235l201.213 -235h-116.877l-143.25 174.223l-142.282 -174.223h-116.897l201.213 235l-201.213 235h116.897z" />
<glyph unicode="y" horiz-adv-x="530" d="M202.614 -245h-98.8301l122.251 275.14l-211.761 439.86h102.188l157.066 -348.609l141.742 348.609h99.8467z" />
<glyph unicode="z" horiz-adv-x="487" d="M42 470h435.02l-305 -386h293.98v-84h-456v16.6533l293.87 371.816h-261.87v81.5303z" />
<glyph unicode="{" horiz-adv-x="368" d="M283.782 -155.75l9.21777 -0.708008v-85.541h-53c-70.5762 0 -101 80.3232 -101 140.205v178.441c0 28.3896 -0.209961 63.0771 -7.60742 88.4619c-6.28125 21.1152 -17.9307 38.2295 -51.3535 56.9551l-5.03906 2.82324v70.1953l5.02344 2.82617 c56.3584 31.7051 58.9766 70.5801 58.9766 145.427v177.461c0 59.8828 30.4238 140.204 101 140.204h53v-85.541l-9.21777 -0.708984c-47.6104 -3.66113 -60.7822 -13.9961 -60.7822 -63.7598v-181.383c0 -56.6865 -12.3135 -119.616 -59.9229 -169.618 c48.667 -51.1123 59.9229 -113.169 59.9229 -169.617v-182.363c0 -49.7637 13.1719 -60.0986 60.7822 -63.7598z" />
<glyph unicode="|" horiz-adv-x="250" d="M162 750v-977h-75v977h75z" />
<glyph unicode="}" horiz-adv-x="368" d="M287.977 297.908l5.02344 -2.8252v-70.1953l-5.03906 -2.82324c-33.4229 -18.7256 -45.0723 -35.8398 -51.3535 -56.9561c-7.39746 -25.3848 -7.60742 -60.0732 -7.60742 -88.4629v-178.441c0 -59.8828 -30.4238 -140.204 -101 -140.204h-53v85.541l9.21777 0.708984 c47.6104 3.66113 60.7822 13.9961 60.7822 63.7598v182.363c0 56.6865 12.3135 119.616 59.9229 169.618c-48.667 51.1123 -59.9229 113.169 -59.9229 169.617v181.383c0 49.7637 -13.1719 60.0986 -60.7822 63.7598l-9.21777 0.708984v85.541h53 c70.5762 0 101 -80.3232 101 -140.205v-177.461c0 -74.8271 2.64941 -113.739 58.9766 -145.427z" />
<glyph unicode="~" horiz-adv-x="360" d="M298 468.732l62 -21c-37.2969 -65.6582 -73.2344 -85.7324 -107.228 -85.7324c-53.5049 0 -102.19 49.7324 -143.772 49.7324c-22 0 -38 -34 -47 -51l-62 22c35.1631 55.6201 65.0117 83.0391 106.794 83.0391c23.5713 0 50.9414 -8.72656 85.2061 -26.0391 c16 -8 40 -22 58 -22c22 0 39 35 48 51z" />
<glyph unicode="&#xc4;" horiz-adv-x="670" d="M301 909.665c0 -31 -23 -54 -54 -54c-32 0 -55 23 -55 54s23 55 55 55c31 0 54 -24 54 -55zM478 909.665c0 -31 -23 -54 -54 -54c-32 0 -55 23 -55 54s23 55 55 55c31 0 54 -24 54 -55zM-10.0889 0l345.089 795.665l345.089 -795.665h-101.721l-68 161h-349.736l-68 -161 h-102.721zM335.03 570.084l-138.027 -331.084h276.956z" />
<glyph unicode="&#xc5;" horiz-adv-x="670" d="M335 866.799c-18.7422 0 -32.5 -14.3457 -32.5 -33.5c0 -18.0225 13.6904 -32.5 32.5 -32.5c17.8447 0 32.5 14.6543 32.5 32.5c0 18.9912 -14.7393 33.5 -32.5 33.5zM335.03 570.084l-138.027 -331.084h276.956zM355.569 748.239l324.52 -748.239h-101.721l-68 161 h-349.736l-68 -161h-102.721l324.491 748.173c-39.0605 9.17969 -67.9023 43.8994 -67.9023 85.126c0 49.124 39.375 88.5 88.5 88.5c48.1064 0 88.5 -39.2959 88.5 -88.5c0 -41.1904 -29.4365 -75.7891 -67.9307 -85.0596z" />
<glyph unicode="&#xc7;" horiz-adv-x="761" d="M672 173l67 -63c-84 -81 -177 -120 -276 -120c-6 -5 -16 -23 -16 -34c47 0 90 -19 90 -71c0 -81 -54 -87 -120 -87v49h4c33 0 61 1 61 44c0 35 -21 45 -50 45h-12l18 54c-210 9 -378 179 -378 385c0 212 177 385 395 385c99 0 197 -36 283 -119l-67 -63 c-78 69 -146 89 -216 89c-166 0 -302 -131 -302 -292s136 -292 302 -292c70 0 135 20 217 90z" />
<glyph unicode="&#xc9;" horiz-adv-x="542" d="M325.446 820h-88.8936l119.83 202h133.403zM175 93h307v-93h-402v750h402v-93h-307v-235h268v-94h-268v-235z" />
<glyph unicode="&#xd1;" horiz-adv-x="740" d="M95.5098 953.27c16.459 -8.23047 39.8994 -21.209 54.6455 -21.209c15.0186 0 31.459 29.5088 41.5684 46.3594l3.06543 5.10742l76.4395 -24.6582l-4.55176 -8.0127c-37.916 -66.748 -76.1553 -89.5273 -113.749 -89.5273c-57.5508 0 -107.61 49.7314 -143.772 49.7314 c-14.8877 0 -30.3809 -29.2529 -40.4629 -47.1768l-3.05078 -5.42188l-76.8701 26.0361l5.02344 8.03809c35.3945 56.6309 67.3555 87.5176 113.344 87.5176c25.3809 0 53.7871 -9.31055 88.3711 -26.7842zM569 188.462v561.538h91v-805.208l-489 603v-548.792h-91v799.462z " />
<glyph unicode="&#xd6;" horiz-adv-x="894" d="M413 874c0 -31 -23 -54 -54 -54c-32 0 -55 23 -55 54s23 55 55 55c31 0 54 -24 54 -55zM590 874c0 -31 -23 -54 -54 -54c-32 0 -55 23 -55 54s23 55 55 55c31 0 54 -24 54 -55zM447 760c217.483 0 397 -172.906 397 -385c0 -213.072 -179.539 -385 -397 -385 s-397 171.928 -397 385c0 212.094 179.517 385 397 385zM447 83c165.538 0 304 131.151 304 292s-138.462 292 -304 292c-166.532 0 -304 -131.124 -304 -292c0 -160.849 138.462 -292 304 -292z" />
<glyph unicode="&#xdc;" horiz-adv-x="650" d="M291 874c0 -31 -23 -54 -54 -54c-32 0 -55 23 -55 54s23 55 55 55c31 0 54 -24 54 -55zM468 874c0 -31 -23 -54 -54 -54c-32 0 -55 23 -55 54s23 55 55 55c31 0 54 -24 54 -55zM483 750h92v-534.923c0 -119.979 -110.977 -225.077 -250 -225.077 c-137.007 0 -250 105.023 -250 225.077v534.923h92v-533.018c0 -66.8027 63.8975 -133.982 158 -133.982c96.0762 0 158 67.0674 158 133.982v533.018z" />
<glyph unicode="&#xe1;" d="M349.446 540h-88.8936l119.83 202h133.403zM560 0h-90v50.5352c-45.9971 -39.7578 -105.271 -60.5352 -165 -60.5352c-140.53 0 -255 109.98 -255 245s114.47 245 255 245c59.9355 0 120.176 -21.791 165 -60.5352v50.5352h90v-470zM470 235 c0 84.9707 -74.5479 155 -165 155s-165 -70.0303 -165 -155c0 -84.9707 74.5479 -155 165 -155s165 70.0303 165 155z" />
<glyph unicode="&#xe0;" d="M260.553 540l-164.339 202h133.402l119.831 -202h-88.8945zM560 0h-90v50.5352c-45.9971 -39.7578 -105.271 -60.5352 -165 -60.5352c-140.53 0 -255 109.98 -255 245s114.47 245 255 245c59.9355 0 120.176 -21.791 165 -60.5352v50.5352h90v-470zM470 235 c0 84.9707 -74.5479 155 -165 155s-165 -70.0303 -165 -155c0 -84.9707 74.5479 -155 165 -155s165 70.0303 165 155z" />
<glyph unicode="&#xe2;" d="M241.936 540h-92.6982l114.407 148h82.7109l114.407 -148h-92.6982l-63.0645 78.2871zM560 0h-90v50.5352c-45.9971 -39.7578 -105.271 -60.5352 -165 -60.5352c-140.53 0 -255 109.98 -255 245s114.47 245 255 245c59.9355 0 120.176 -21.791 165 -60.5352v50.5352h90 v-470zM470 235c0 84.9707 -74.5479 155 -165 155s-165 -70.0303 -165 -155c0 -84.9707 74.5479 -155 165 -155s165 70.0303 165 155z" />
<glyph unicode="&#xe4;" d="M271 594c0 -31 -23 -54 -54 -54c-32 0 -55 23 -55 54s23 55 55 55c31 0 54 -24 54 -55zM448 594c0 -31 -23 -54 -54 -54c-32 0 -55 23 -55 54s23 55 55 55c31 0 54 -24 54 -55zM560 0h-90v50.5352c-45.9971 -39.7578 -105.271 -60.5352 -165 -60.5352 c-140.53 0 -255 109.98 -255 245s114.47 245 255 245c59.9355 0 120.176 -21.791 165 -60.5352v50.5352h90v-470zM470 235c0 84.9707 -74.5479 155 -165 155s-165 -70.0303 -165 -155c0 -84.9707 74.5479 -155 165 -155s165 70.0303 165 155z" />
<glyph unicode="&#xe3;" d="M320.509 634.808c16.46 -8.22949 39.9004 -21.208 54.6465 -21.208c15.0176 0 31.458 29.5088 41.5684 46.3584l3.06445 5.1084l76.4404 -24.6582l-4.55176 -8.0127c-37.916 -66.748 -76.1553 -89.5283 -113.75 -89.5283c-57.5498 0 -107.609 49.7324 -143.771 49.7324 c-14.8887 0 -30.3809 -29.2529 -40.4639 -47.1768l-3.0498 -5.42285l-76.8701 26.0371l5.02344 8.03711c35.3945 56.6309 67.3545 87.5176 113.343 87.5176c25.3809 0 53.7871 -9.31055 88.3711 -26.7842zM560 0h-90v50.5352 c-45.9971 -39.7578 -105.271 -60.5352 -165 -60.5352c-140.53 0 -255 109.98 -255 245s114.47 245 255 245c59.9355 0 120.176 -21.791 165 -60.5352v50.5352h90v-470zM470 235c0 84.9707 -74.5479 155 -165 155s-165 -70.0303 -165 -155c0 -84.9707 74.5479 -155 165 -155 s165 70.0303 165 155z" />
<glyph unicode="&#xe5;" d="M305 540c-49.0811 0 -88.5 39.3037 -88.5 87.5c0 49.124 39.375 88.5 88.5 88.5c48.1064 0 88.5 -39.2949 88.5 -88.5c0 -48.2764 -40.4375 -87.5 -88.5 -87.5zM305 661c-18.7422 0 -32.5 -14.3447 -32.5 -33.5c0 -18.0215 13.6904 -32.5 32.5 -32.5 c17.8447 0 32.5 14.6543 32.5 32.5c0 18.9922 -14.7393 33.5 -32.5 33.5zM560 0h-90v50.5352c-45.9971 -39.7578 -105.271 -60.5352 -165 -60.5352c-140.53 0 -255 109.98 -255 245s114.47 245 255 245c59.9355 0 120.176 -21.791 165 -60.5352v50.5352h90v-470zM470 235 c0 84.9707 -74.5479 155 -165 155s-165 -70.0303 -165 -155c0 -84.9707 74.5479 -155 165 -155s165 70.0303 165 155z" />
<glyph unicode="&#xe7;" horiz-adv-x="580" d="M456 179l82 -37c-37 -89 -129 -151 -225 -151c0 0 -16 -24 -16 -35c47 0 90 -19 90 -71c0 -81 -54 -87 -120 -87v49h4c33 0 61 1 61 44c0 35 -21 45 -50 45h-12l18 55c-133 8 -238 114 -238 244c0 135 114 245 255 245c102 0 193 -61 234 -154l-82 -35 c-27 60 -87 99 -152 99c-90 0 -165 -70 -165 -155s75 -155 165 -155c65 0 125 39 151 99z" />
<glyph unicode="&#xe9;" horiz-adv-x="610" d="M349.446 540h-88.8936l119.83 202h133.403zM560 234.623v-9.62305h-419.696c5.40527 -80.6807 77.6934 -145 164.696 -145c65.0801 0 125.405 38.7236 150.786 98.8867l82.4326 -36.7627c-38.6709 -91.9717 -134.307 -152.124 -233.219 -152.124 c-140.53 0 -255 109.98 -255 245s114.47 245 255 245s255 -110.15 255 -245.377zM305 390c-62.2812 0 -119.39 -33.0518 -148.57 -85h297.141c-29.749 52.9609 -86.6885 85 -148.57 85z" />
<glyph unicode="&#xe8;" horiz-adv-x="610" d="M260.553 540l-164.339 202h133.402l119.831 -202h-88.8945zM560 234.623v-9.62305h-419.696c5.40527 -80.6807 77.6934 -145 164.696 -145c65.0801 0 125.405 38.7236 150.786 98.8867l82.4326 -36.7627c-38.6709 -91.9717 -134.307 -152.124 -233.219 -152.124 c-140.53 0 -255 109.98 -255 245s114.47 245 255 245s255 -110.15 255 -245.377zM305 390c-62.2812 0 -119.39 -33.0518 -148.57 -85h297.141c-29.749 52.9609 -86.6885 85 -148.57 85z" />
<glyph unicode="&#xea;" horiz-adv-x="610" d="M241.936 540h-92.6982l114.407 148h82.7109l114.407 -148h-92.6982l-63.0645 78.2871zM560 234.623v-9.62305h-419.696c5.40527 -80.6807 77.6934 -145 164.696 -145c65.0801 0 125.405 38.7236 150.786 98.8867l82.4326 -36.7627 c-38.6709 -91.9717 -134.307 -152.124 -233.219 -152.124c-140.53 0 -255 109.98 -255 245s114.47 245 255 245s255 -110.15 255 -245.377zM305 390c-62.2812 0 -119.39 -33.0518 -148.57 -85h297.141c-29.749 52.9609 -86.6885 85 -148.57 85z" />
<glyph unicode="&#xeb;" horiz-adv-x="610" d="M271 594c0 -31 -23 -54 -54 -54c-32 0 -55 23 -55 54s23 55 55 55c31 0 54 -24 54 -55zM448 594c0 -31 -23 -54 -54 -54c-32 0 -55 23 -55 54s23 55 55 55c31 0 54 -24 54 -55zM560 234.623v-9.62305h-419.696c5.40527 -80.6807 77.6934 -145 164.696 -145 c65.0801 0 125.405 38.7236 150.786 98.8867l82.4326 -36.7627c-38.6709 -91.9717 -134.307 -152.124 -233.219 -152.124c-140.53 0 -255 109.98 -255 245s114.47 245 255 245s255 -110.15 255 -245.377zM305 390c-62.2812 0 -119.39 -33.0518 -148.57 -85h297.141 c-29.749 52.9609 -86.6885 85 -148.57 85z" />
<glyph unicode="&#xed;" horiz-adv-x="274" d="M181.446 540h-88.8936l119.83 202h133.403zM92 0v470h90v-470h-90z" />
<glyph unicode="&#xec;" horiz-adv-x="274" d="M92.5527 540l-164.339 202h133.402l119.831 -202h-88.8945zM92 0v470h90v-470h-90z" />
<glyph unicode="&#xee;" horiz-adv-x="274" d="M73.9355 540h-92.6982l114.407 148h82.7109l114.407 -148h-92.6982l-63.0645 78.2871zM92 0v470h90v-470h-90z" />
<glyph unicode="&#xef;" horiz-adv-x="274" d="M103 594c0 -31 -23 -54 -54 -54c-32 0 -55 23 -55 54s23 55 55 55c31 0 54 -24 54 -55zM280 594c0 -31 -23 -54 -54 -54c-32 0 -55 23 -55 54s23 55 55 55c31 0 54 -24 54 -55zM92 0v470h90v-470h-90z" />
<glyph unicode="&#xf1;" horiz-adv-x="535" d="M288.009 634.808c16.46 -8.22949 39.9004 -21.208 54.6465 -21.208c15.0176 0 31.458 29.5088 41.5684 46.3584l3.06445 5.1084l76.4404 -24.6582l-4.55176 -8.0127c-37.916 -66.748 -76.1553 -89.5283 -113.75 -89.5283c-57.5498 0 -107.609 49.7324 -143.771 49.7324 c-14.8887 0 -30.3809 -29.2529 -40.4639 -47.1768l-3.0498 -5.42285l-76.8701 26.0371l5.02344 8.03711c35.3945 56.6309 67.3545 87.5176 113.343 87.5176c25.3809 0 53.7871 -9.31055 88.3711 -26.7842zM285 480c108.25 0 180 -84.9619 180 -184.32v-295.68h-90v292.976 c0 52.5322 -40.1299 97.0244 -97 97.0244c-55.3076 0 -108 -42.4209 -108 -94.1709v-295.829h-90v470h90v-33.0039c32.3057 29.4658 73.1416 43.0039 115 43.0039z" />
<glyph unicode="&#xf3;" horiz-adv-x="610" d="M349.446 540h-88.8936l119.83 202h133.403zM560 235c0 -135.02 -114.47 -245 -255 -245s-255 109.98 -255 245s114.47 245 255 245s255 -109.98 255 -245zM470 235c0 84.9707 -74.5479 155 -165 155s-165 -70.0303 -165 -155c0 -84.9707 74.5479 -155 165 -155 s165 70.0303 165 155z" />
<glyph unicode="&#xf2;" horiz-adv-x="610" d="M260.553 540l-164.339 202h133.402l119.831 -202h-88.8945zM560 235c0 -135.02 -114.47 -245 -255 -245s-255 109.98 -255 245s114.47 245 255 245s255 -109.98 255 -245zM470 235c0 84.9707 -74.5479 155 -165 155s-165 -70.0303 -165 -155 c0 -84.9707 74.5479 -155 165 -155s165 70.0303 165 155z" />
<glyph unicode="&#xf4;" horiz-adv-x="610" d="M241.936 540h-92.6982l114.407 148h82.7109l114.407 -148h-92.6982l-63.0645 78.2871zM560 235c0 -135.02 -114.47 -245 -255 -245s-255 109.98 -255 245s114.47 245 255 245s255 -109.98 255 -245zM470 235c0 84.9707 -74.5479 155 -165 155s-165 -70.0303 -165 -155 c0 -84.9707 74.5479 -155 165 -155s165 70.0303 165 155z" />
<glyph unicode="&#xf6;" horiz-adv-x="610" d="M271 594c0 -31 -23 -54 -54 -54c-32 0 -55 23 -55 54s23 55 55 55c31 0 54 -24 54 -55zM448 594c0 -31 -23 -54 -54 -54c-32 0 -55 23 -55 54s23 55 55 55c31 0 54 -24 54 -55zM560 235c0 -135.02 -114.47 -245 -255 -245s-255 109.98 -255 245s114.47 245 255 245 s255 -109.98 255 -245zM470 235c0 84.9707 -74.5479 155 -165 155s-165 -70.0303 -165 -155c0 -84.9707 74.5479 -155 165 -155s165 70.0303 165 155z" />
<glyph unicode="&#xf5;" horiz-adv-x="610" d="M320.509 634.808c16.46 -8.22949 39.9004 -21.208 54.6465 -21.208c15.0176 0 31.458 29.5088 41.5684 46.3584l3.06445 5.1084l76.4404 -24.6582l-4.55176 -8.0127c-37.916 -66.748 -76.1553 -89.5283 -113.75 -89.5283c-57.5498 0 -107.609 49.7324 -143.771 49.7324 c-14.8887 0 -30.3809 -29.2529 -40.4639 -47.1768l-3.0498 -5.42285l-76.8701 26.0371l5.02344 8.03711c35.3945 56.6309 67.3545 87.5176 113.343 87.5176c25.3809 0 53.7871 -9.31055 88.3711 -26.7842zM560 235c0 -135.02 -114.47 -245 -255 -245s-255 109.98 -255 245 s114.47 245 255 245s255 -109.98 255 -245zM470 235c0 84.9707 -74.5479 155 -165 155s-165 -70.0303 -165 -155c0 -84.9707 74.5479 -155 165 -155s165 70.0303 165 155z" />
<glyph unicode="&#xfa;" horiz-adv-x="517" d="M302.946 540h-88.8936l119.83 202h133.403zM362 470h90v-294.72c0 -102.334 -87.5283 -185.28 -194 -185.28c-106.524 0 -193 83.0166 -193 185.28v294.72h90v-292.024c0 -52.6875 47.6104 -97.9756 103 -97.9756c57.4434 0 104 45.252 104 97.9756v292.024z" />
<glyph unicode="&#xf9;" horiz-adv-x="517" d="M214.053 540l-164.339 202h133.402l119.831 -202h-88.8945zM362 470h90v-294.72c0 -102.334 -87.5283 -185.28 -194 -185.28c-106.524 0 -193 83.0166 -193 185.28v294.72h90v-292.024c0 -52.6875 47.6104 -97.9756 103 -97.9756c57.4434 0 104 45.252 104 97.9756 v292.024z" />
<glyph unicode="&#xfb;" horiz-adv-x="517" d="M195.436 540h-92.6982l114.407 148h82.7109l114.407 -148h-92.6982l-63.0645 78.2871zM362 470h90v-294.72c0 -102.334 -87.5283 -185.28 -194 -185.28c-106.524 0 -193 83.0166 -193 185.28v294.72h90v-292.024c0 -52.6875 47.6104 -97.9756 103 -97.9756 c57.4434 0 104 45.252 104 97.9756v292.024z" />
<glyph unicode="&#xfc;" horiz-adv-x="517" d="M224.5 594c0 -31 -23 -54 -54 -54c-32 0 -55 23 -55 54s23 55 55 55c31 0 54 -24 54 -55zM401.5 594c0 -31 -23 -54 -54 -54c-32 0 -55 23 -55 54s23 55 55 55c31 0 54 -24 54 -55zM362 470h90v-294.72c0 -102.334 -87.5283 -185.28 -194 -185.28 c-106.524 0 -193 83.0166 -193 185.28v294.72h90v-292.024c0 -52.6875 47.6104 -97.9756 103 -97.9756c57.4434 0 104 45.252 104 97.9756v292.024z" />
<glyph unicode="&#x2020;" horiz-adv-x="418" d="M252 481h126v-93h-126v-468h-92v468h-120v93h120v269h92v-269z" />
<glyph unicode="&#xb0;" horiz-adv-x="477" d="M239 757c103.56 0 188 -80.0254 188 -178.973c0 -98.041 -84.4668 -178.026 -188 -178.026c-104.49 0 -189 79.9609 -189 178.026c0 98.9707 84.4844 178.973 189 178.973zM239 485.001c56.4531 0 103 42.0498 103 93.0488c0 51.0742 -46.665 93.9512 -103 93.9512 c-56.4189 0 -104 -42.9844 -104 -93.9521c0 -50.8916 47.4629 -93.0479 104 -93.0479z" />
<glyph unicode="&#xa2;" horiz-adv-x="570" d="M261 563l82.998 0.00195312v-86.6299c84.6855 -15.7979 151.085 -63.5254 195.839 -144.697l5.09766 -9.24609l-84.374 -34.3711l-4.33984 7.64062c-26.8564 47.2773 -61.5928 74.8037 -112.222 89.1523v-299.655c50.8486 14.5264 84.4941 41.2041 111.186 89.0449 l4.42383 7.92969l84.0215 -36.6719l-4.70801 -8.93359c-42.1113 -79.9102 -111.562 -127.401 -194.922 -142.936v-84.6279h-83v84.8008c-124.756 25.9238 -211 122.866 -211 241.199c0 118.885 87.5527 215.547 211 241.198v86.8008zM141.998 235.002 c0 -68.8574 44.0898 -129.624 119 -154.607v309.214c-76.1006 -25.3799 -119 -86.2021 -119 -154.606z" />
<glyph unicode="&#xa3;" horiz-adv-x="808" d="M337.383 77.8125l335.618 -0.000976562v-88.8125h-524v52.335l45.4854 29.3633c81.3594 52.7188 108.42 82.7383 108.42 167.193c0 37.2207 -5.88281 86.2598 -15.7207 150.105c-0.883789 3.91406 -0.987305 5.88379 -1.26367 8.79785h-82.9219v89.2051h78.6875 c7.67285 90.5596 39.3877 144.632 69.6543 179.626c45.8369 52.1943 114.268 84.374 178.658 84.374h143v-91h-143c-29.2168 0 -75.2861 -13.292 -110.383 -54.4189c-19.7949 -21.6738 -40.6562 -57.2549 -47.6719 -121.902h301.055v-87.6787h-296.447 c7.47949 -50.2109 14.5059 -95.6885 14.5059 -142.414c0 -60.4453 -13.0107 -119.525 -53.6758 -174.772z" />
<glyph unicode="&#xa7;" horiz-adv-x="619" d="M217 669.945c0 -49.1396 28.5322 -68.4658 80.5 -93.8486l120.033 -59.6045c56.4229 -28.042 131.466 -65.8027 131.466 -159.144c0 -61.3291 -41.666 -111.88 -77.7295 -147.45c30.2607 -30.1221 44.7295 -61.042 44.7295 -114.348 c0 -122.295 -91.7012 -187.807 -195.219 -187.807c-88.1992 0 -185.529 47.873 -245.346 147.092l76.1104 54.3555c47.2744 -77.8066 88.7617 -109.193 156.454 -109.193c57.1484 0 106 42.167 106 97.6875c0 50.4238 -51.5322 80.1875 -93.4717 100.673 c-19.707 9.62598 -40.2588 18.2354 -62.457 27.1064c-91.2354 39.7188 -188.07 85.5605 -188.07 187.752c0 67.5059 44.3721 116.167 85.5059 151.897c-20.5215 28.3174 -38.5059 64.4463 -38.5059 105.021c0 115.975 87.2832 174.651 182.71 174.651 c67.1465 0 139.017 -29.084 189.819 -87.2051l-71.9463 -60.2881c-34.2197 37.8428 -76.1533 54.7578 -112.508 54.7578c-49.4141 0 -88.0752 -29.4004 -88.0752 -82.1055zM170.998 426.999c0 -43.9102 23.4053 -65.5312 67.4805 -88.0586l160.998 -79.0527 c29.5918 26.1211 51.5225 55.9287 51.5225 87.1113c0 42.7656 -24.5137 65.5762 -67.4404 87.0391l-161.141 79.123c-30.6338 -26.1846 -51.4199 -53.877 -51.4199 -86.1621z" />
<glyph unicode="&#x2022;" horiz-adv-x="314" d="M239 239c0 -47 -35 -82 -82 -82c-45 0 -82 35 -82 82c0 45 37 81 82 81c47 0 82 -36 82 -81z" />
<glyph unicode="&#xb6;" horiz-adv-x="509" d="M420 750v-750h-59v692h-58v-692h-58v280c-120 18 -215 110 -215 234c0 131 109 236 239 236h151z" />
<glyph unicode="&#xdf;" horiz-adv-x="559" d="M169 0l-89.002 0.00195312v567c0 101.423 81.3613 183 180 183s180 -81.5771 180 -183c0 -44.9619 -18.6846 -86.3613 -54.2754 -123.771c79.2598 -50.1191 123.275 -123.801 123.275 -208.705c0 -130.103 -104.682 -235.525 -254.381 -244.506l-10.6191 -0.65918 v86.3555l9.25488 0.664062c102.465 7.35742 166.746 75.5205 166.746 156.565c0 81.0459 -64.2812 149.208 -166.745 156.565l-9.25488 0.664062v83.7314l8.84863 1.02637c65.1621 7.55469 98.1523 46.8232 98.1523 92.0664c0 50.5879 -40.6387 92 -91 92 s-91 -41.4121 -91 -92v-567z" />
<glyph unicode="&#xae;" horiz-adv-x="491" d="M446 560c0 -110 -91 -199 -201 -199c-109 0 -200 89 -200 199c0 111 91 200 200 200c110 0 201 -89 201 -200zM413 560c0 93 -75 166 -168 166c-91 0 -166 -73 -166 -166c0 -92 75 -165 166 -165c93 0 168 73 168 165zM277 549l48 -86h-36l-45 82h-18v-82h-32v195h57 c34 0 63 -25 63 -57c0 -19 -12 -37 -37 -52zM226 573h25c17 0 31 12 31 28c0 17 -14 29 -31 29h-25v-57z" />
<glyph unicode="&#xa9;" horiz-adv-x="767" d="M697 375c0 -172 -142 -312 -314 -312c-171 0 -313 140 -313 312s142 312 313 312c172 0 314 -140 314 -312zM636 375c0 140 -113 251 -253 251c-138 0 -252 -111 -252 -251s114 -251 252 -251c140 0 253 111 253 251zM539 432l-62 -27c-29 52 -61 70 -96 70 c-54 0 -98 -44 -98 -98s44 -99 98 -99c34 0 66 18 94 65c23 -7 38 -11 64 -22c-40 -79 -95 -111 -158 -111c-92 0 -167 75 -167 167s75 167 167 167c63 0 118 -34 158 -112z" />
<glyph unicode="&#x2122;" horiz-adv-x="723" d="M291 750v-68h-85v-257h-71v257h-85v68h241zM673 750v-325h-71v167l-98 -133l-99 133v-167h-72v325h38l133 -177l131 177h38z" />
<glyph unicode="&#xb4;" horiz-adv-x="-20" d="M5.94434 548h-88.8936l119.83 202h133.402z" />
<glyph unicode="&#xa8;" horiz-adv-x="637" d="M287 861c0 -31 -23 -54 -54 -54c-32 0 -55 23 -55 54s23 55 55 55c31 0 54 -24 54 -55zM464 861c0 -31 -23 -54 -54 -54c-32 0 -55 23 -55 54s23 55 55 55c31 0 54 -24 54 -55z" />
<glyph unicode="&#x2260;" horiz-adv-x="575" d="M505 175v-65h-226l-62 -120h-72l62 120h-137v65h170l62 119h-232v65h265l63 121h72l-63 -121h98v-65h-131l-62 -119h193z" />
<glyph unicode="&#xc6;" horiz-adv-x="945" d="M593 91h308v-91h-399v200h-225.407l-129 -200h-107.641l481.507 750h379.541v-91h-308v-231h261v-91h-261v-246zM502 555.766l-169.747 -265.766h169.747v265.766z" />
<glyph unicode="&#xd8;" horiz-adv-x="914" d="M683.648 760l88.0361 -0.000976562l-61.4189 -89.7959c92.9209 -78.1494 143.734 -178.134 143.734 -295.204c0 -213.072 -179.539 -385 -397 -385c-61.9453 0 -119.312 13.4141 -180.607 43.1406l-29.0723 -43.1396h-88.0049l55.3232 80.8838 c-97.6836 78.9219 -154.638 182.944 -154.638 304.116c0 212.094 179.517 385 397 385c67.0938 0 129.008 -17.4834 192.717 -50.8965zM152.999 364.999c0 -90.5879 41.1992 -171.598 113.806 -233.227l331.678 499.444c-51.1875 25.4805 -92.1943 35.7822 -141.483 35.7822 c-166.504 0 -304 -136.608 -304 -302zM760.998 385c0 86.5391 -35.7363 160.149 -103.18 224.655l-329.967 -497.354c47.2012 -20.458 86.8496 -29.3008 129.146 -29.3008c165.538 0 304 135.643 304 302z" />
<glyph unicode="&#x221e;" horiz-adv-x="1184" d="M590.982 306.023l1.01758 -1.35645l1.04004 1.38672c64.708 83.918 162.845 171.947 282.96 171.947c143.417 0 258 -109.879 258 -244s-114.583 -244 -258 -244c-120.114 0 -218.254 88.0312 -282.96 171.946l-1.04004 1.38672 c-0.599609 -0.799805 -0.416992 -0.556641 -1.0166 -1.35645c-63.7285 -83.959 -162.896 -171.977 -282.983 -171.977c-142.41 0 -258 109.845 -258 244s115.59 244 258 244c120.087 0 219.256 -88.0195 282.982 -171.978zM308 79c88.0234 0 172.294 76.6484 229.898 155 c-58.4775 79.5391 -142.072 155 -229.898 155c-91.6016 0 -167 -69.1963 -167 -155c0 -85.8047 75.3994 -155 167 -155zM876 79c91.6016 0 167.001 69.1963 167.001 155c0 85.8047 -75.3994 155 -167 155c-88.0234 0 -172.295 -76.6494 -229.898 -154.999 c58.5 -79.5068 143.058 -155.001 229.897 -155.001z" />
<glyph unicode="&#xb1;" horiz-adv-x="698" d="M390 345h248v-80h-248v-137h-82v137h-248v80h248v137h82v-137zM60 80h578v-80h-578v80z" />
<glyph unicode="&#xa5;" horiz-adv-x="637" d="M318.022 452.922l185.431 297.078h107.578l-226 -353.865h168.968v-81.1348h-191v-62h191v-83h-191v-170h-90v170h-190v83h190v62h-190v83h168.011l-225 352h107.552z" />
<glyph unicode="&#x2211;" horiz-adv-x="798" d="M252.696 91h480.302v-91h-702.683l402.217 379.776l-402.696 370.224h703.163v-91h-479.708l308.204 -279.055z" />
<glyph unicode="&#x220f;" horiz-adv-x="474" d="M60 750h354v-750h-83v663h-188v-663h-83v750z" />
<glyph unicode="&#x3c0;" horiz-adv-x="602" d="M529.678 72.5098l8.32227 -1.34863v-84.3623l-11.1289 1.26465c-92.3691 9.98828 -146.871 70.9697 -146.871 141.723v251.214h-161v-381h-87v381h-67v90h473v-90h-71v-251.253c0 -27.9395 18.9541 -50.1543 62.6777 -57.2373z" />
<glyph unicode="&#xe6;" horiz-adv-x="895" d="M605 -10c-68.8086 0 -137.095 29.3975 -185.57 80.9893l-157.503 -68.1875c-20.5322 -8.64551 -43.6484 -12.8037 -65.9268 -12.8037c-86.5664 0 -161 58.7725 -161 146.934c0 65.0752 40.8818 117.792 101.119 142.31l1.86133 0.757812h214.02v34.833 c0 53.373 -47.2197 75.167 -103 75.167c-45.4033 0 -87.7715 -19.6934 -104.758 -60.8174l-82.4736 34.6641c31.8154 76.3564 107.06 116.154 187.231 116.154c69.7168 0 134.596 -28.0215 168.811 -82.6445c46.7588 50.9404 113.288 82.6445 187.189 82.6445 c135.605 0 245.678 -101.495 256 -245.3v-10.7002h-418.576c6.25488 -80.8457 77.5977 -145.608 162.575 -145.608c60.8447 0 114.565 32.915 150.217 95.8662l83.6309 -38.8545c-50.4424 -91.9834 -135.8 -145.403 -233.847 -145.403zM604.999 387.999 c-59.6084 0 -122.439 -39.2959 -140.675 -92h281.35c-18.8594 53.6475 -81.4561 92 -140.675 92zM227.305 84.7754l124.693 48.8975v56.3252h-194.369c-20.3438 -11.4316 -32.6309 -31.8184 -32.6309 -53.2061c0 -36.0459 31.8955 -57.793 71 -57.793 c10.207 0 21.5469 2.58301 31.3066 5.77637z" />
<glyph unicode="&#xf8;" horiz-adv-x="610" d="M416.778 532h95.4004l-52.6045 -101.465c64.2432 -50.4355 100.425 -117.797 100.425 -194.61c0 -135.529 -114.47 -245.925 -255 -245.925c-22.9297 0 -45.8125 3.59473 -72.8252 11.084l-38.0293 -75.084h-95.4619l57.5771 109.084 c-67.8691 50.4561 -106.26 120.024 -106.26 198.801c0 135.634 114.47 246.115 255 246.115c25.7432 0 50.3301 -3.74121 79.8457 -12.833zM141.998 225c0 -44.6484 19.2168 -86.3184 57.8994 -121.994l141.747 279.788c-15.4609 4.10742 -26.0283 5.20605 -36.6465 5.20605 c-89.4561 0 -163 -73.5439 -163 -163zM467.998 244.999c0 41.5586 -16.9551 80.7568 -52.1855 116.471l-140.14 -275.67c14.4072 -3.11035 20.5273 -3.80078 29.3252 -3.80078c89.4561 0 163 73.5439 163 163z" />
<glyph unicode="&#xbf;" horiz-adv-x="501" d="M248 760c31.5176 0 57 -24.7656 57 -59c0 -33.3916 -25.5781 -58 -57 -58c-32.2607 0 -58 24.5127 -58 58c0 34.3301 25.6426 59 58 59zM367.051 204h91.9219c-9.33301 -127.554 -100.347 -214 -210.974 -214c-114.574 0 -210 94.4951 -210 212 c0 75.2539 43.7061 125.848 84.9297 167.071c29.0977 29.0977 79.0713 71.166 79.0713 110.929v73h92v-74c0 -130.69 -164 -170.006 -164 -277c0 -64.584 42.6777 -124 118 -124c70.21 0 111.475 51.1846 119.051 126z" />
<glyph unicode="&#xa1;" horiz-adv-x="314" d="M157 760c32.2607 0 58 -24.5127 58 -58c0 -34.3301 -25.6426 -59 -58 -59c-32.3564 0 -58 24.6699 -58 59c0 33.4863 25.7383 58 58 58zM110 553h95v-563h-95v563z" />
<glyph unicode="&#x221a;" horiz-adv-x="907" d="M445.345 -23.1172l376.367 773.117h101.199l-445.625 -916h-77.3223l-165 460h-234.963v91h299.038z" />
<glyph unicode="&#x192;" horiz-adv-x="542" d="M421 537h91.002v-90h-91c-33.1943 0 -60.9102 -21.3838 -66.1445 -50.8574l-10.8574 -54.1426h117.003v-90h-133.67l-41.4893 -220.503c-19.8613 -109.235 -114.258 -189.421 -245.213 -197.478l-10.6289 -0.669922v90.9258l9.24902 0.696289 c89.3027 6.56445 146.771 57.3389 158.909 124.812l38.8154 204.323h-98.9746v87.8926h114.725l14.4453 72.1367c13.8535 71.9736 79.0029 122.863 153.829 122.863z" />
<glyph unicode="&#x2248;" horiz-adv-x="488" d="M362 374l62.001 -20c-36.9082 -65.6572 -72.7598 -85.7314 -106.792 -85.7314c-53.5664 0 -102.627 49.7324 -144.209 49.7324c-22 0 -38 -35 -47 -51l-62 21c35.2158 56.3447 65.1016 83.9922 106.982 83.9922c23.5293 0 50.8447 -8.72656 85.0176 -25.9932 c16 -8 41 -22 59 -22c21 0 38 34 47 50zM362.001 222l62 -21c-36.9443 -65.333 -72.8301 -85.2959 -106.893 -85.2959c-53.5273 0 -102.552 49.2959 -144.107 49.2959c-22 0 -38 -34 -47 -51l-62 22c35.3506 55.9189 65.3311 83.7451 107.466 83.7451 c23.4199 0 50.5947 -8.59668 84.5342 -25.7451c16 -8 41 -23 59 -23c21 0 38 35 47 51z" />
<glyph unicode="&#xab;" horiz-adv-x="405" d="M229.717 326.285l-92.4951 -88.5166l93.5244 -95.5137l-53.4775 -58.8252l-153.49 156.803l153.981 147.335zM379.716 326.285l-92.4951 -88.5166l93.5244 -95.5137l-53.4775 -58.8252l-153.49 156.803l153.981 147.335z" />
<glyph unicode="&#xbb;" horiz-adv-x="405" d="M26.3701 326.202l50.7471 61.4307l155.13 -147.374l-153.516 -156.829l-53.4775 58.8252l93.5244 95.5137zM176.371 326.203l50.7471 61.4307l155.13 -147.374l-153.516 -156.829l-53.4775 58.8252l93.5244 95.5137z" />
<glyph unicode="&#x2026;" horiz-adv-x="649" d="M164 49c0 -33 -27 -59 -59 -59c-34 0 -60 26 -60 59s26 60 60 60c32 0 59 -27 59 -60zM384 49c0 -33 -27 -59 -59 -59c-34 0 -60 26 -60 59s26 60 60 60c32 0 59 -27 59 -60zM604 49c0 -33 -27 -59 -59 -59c-34 0 -60 26 -60 59s26 60 60 60c32 0 59 -27 59 -60z" />
<glyph unicode="&#xc0;" horiz-adv-x="670" d="M290.553 855.665l-164.339 202h133.402l119.831 -202h-88.8945zM-10.0889 0l345.089 795.665l345.089 -795.665h-101.721l-68 161h-349.736l-68 -161h-102.721zM335.03 570.084l-138.027 -331.084h276.956z" />
<glyph unicode="&#xc3;" horiz-adv-x="670" d="M350.509 950.474c16.46 -8.23047 39.9004 -21.209 54.6465 -21.209c15.0176 0 31.458 29.5088 41.5684 46.3594l3.06445 5.10742l76.4404 -24.6582l-4.55176 -8.0127c-37.916 -66.748 -76.1553 -89.5273 -113.75 -89.5273c-57.5498 0 -107.609 49.7314 -143.771 49.7314 c-14.8887 0 -30.3809 -29.2529 -40.4639 -47.1768l-3.0498 -5.42285l-76.8701 26.0371l5.02344 8.03809c35.3945 56.6309 67.3545 87.5176 113.343 87.5176c25.3809 0 53.7871 -9.31055 88.3711 -26.7842zM-10.0889 0l345.089 795.665l345.089 -795.665h-101.721l-68 161 h-349.736l-68 -161h-102.721zM335.03 570.084l-138.027 -331.084h276.956z" />
<glyph unicode="&#xd5;" horiz-adv-x="894" d="M462.509 914.808c16.46 -8.23047 39.9004 -21.209 54.6465 -21.209c15.0176 0 31.458 29.5088 41.5684 46.3594l3.06445 5.10742l76.4404 -24.6582l-4.55176 -8.0127c-37.916 -66.748 -76.1553 -89.5273 -113.75 -89.5273c-57.5498 0 -107.609 49.7314 -143.771 49.7314 c-14.8887 0 -30.3809 -29.2529 -40.4639 -47.1768l-3.0498 -5.42285l-76.8701 26.0371l5.02344 8.03809c35.3945 56.6309 67.3545 87.5176 113.343 87.5176c25.3809 0 53.7871 -9.31055 88.3711 -26.7842zM447 760c217.483 0 397 -172.906 397 -385 c0 -213.072 -179.539 -385 -397 -385s-397 171.928 -397 385c0 212.094 179.517 385 397 385zM447 83c165.538 0 304 131.151 304 292s-138.462 292 -304 292c-166.532 0 -304 -131.124 -304 -292c0 -160.849 138.462 -292 304 -292z" />
<glyph unicode="&#x152;" horiz-adv-x="1257" d="M866 93h330.999v-93h-424v134.796c-74.8799 -89.1006 -186.45 -144.796 -311 -144.796c-220.352 0 -402 171.826 -402 385c0 212.195 181.625 385 402 385c124.865 0 237.048 -56.7979 311.001 -144.796v134.796h424v-93h-331v-235h290v-94h-290v-235zM461.999 83 c168.642 0 308 131.233 308 292c0 159.805 -139.387 292 -308 292s-308 -132.195 -308 -292c0 -160.739 140.353 -292 308 -292z" />
<glyph unicode="&#x153;" horiz-adv-x="1030" d="M874.159 181.673l84.7656 -39.1826c-49.5674 -98.1025 -139.993 -152.49 -234.926 -152.49c-82.6357 0 -155.143 40.0664 -208.999 111.029c-54.7627 -72.1562 -126.656 -111.028 -209 -111.028c-141.499 0 -256 109.963 -256 245s114.501 245 256 245 c82.6357 0 155.143 -40.0664 208.999 -111.029c54.7627 72.1562 126.656 111.028 209 111.028c136.613 0 246.651 -101.528 256.977 -243.092l0.742188 -9.9082h-418.629c12.2197 -87.7021 80.7559 -145 160.911 -145c59.0225 0 114.619 32.4346 150.159 99.6729z M305.999 82c88.4111 0 162 69.0068 162 153s-73.5889 153 -162 153s-162 -69.0068 -162 -153s73.5889 -153 162 -153zM723.999 388c-52.04 0 -122.035 -36.2295 -137.61 -92h276.203c-16.3018 56.7461 -86.8184 92 -138.593 92z" />
<glyph unicode="&#x2013;" horiz-adv-x="674" d="M604 276v-75h-534v75h534z" />
<glyph unicode="&#x2014;" horiz-adv-x="768" d="M768 276v-75h-768v75h768z" />
<glyph unicode="&#x201c;" horiz-adv-x="336" d="M111 750h58l-57 -238h-92zM256 750h57l-57 -238h-92z" />
<glyph unicode="&#x201d;" horiz-adv-x="336" d="M81 750h92l-112 -238h-38zM225 750h92l-112 -238h-37z" />
<glyph unicode="&#x2018;" horiz-adv-x="193" d="M111 750h58l-57 -238h-92z" />
<glyph unicode="&#x2019;" horiz-adv-x="193" d="M81 750h92l-112 -238h-38z" />
<glyph unicode="&#xf7;" horiz-adv-x="698" d="M403 390c0 -27 -20 -48 -48 -48s-48 21 -48 48s20 48 48 48s48 -21 48 -48zM628 265v-62h-558v62h558zM403 80c0 -27 -20 -48 -48 -48s-48 21 -48 48s20 48 48 48s48 -21 48 -48z" />
<glyph unicode="&#xff;" horiz-adv-x="530" d="M230.696 594c0 -31 -23 -54 -54 -54c-32 0 -55 23 -55 54s23 55 55 55c31 0 54 -24 54 -55zM407.696 594c0 -31 -23 -54 -54 -54c-32 0 -55 23 -55 54s23 55 55 55c31 0 54 -24 54 -55zM202.614 -245h-98.8311l122.252 275.14l-211.761 439.86h102.188l157.065 -348.609 l141.742 348.609h99.8477z" />
<glyph unicode="&#x178;" horiz-adv-x="597" d="M264.521 874c0 -31 -23 -54 -54 -54c-32 0 -55 23 -55 54s23 55 55 55c31 0 54 -24 54 -55zM441.521 874c0 -31 -23 -54 -54 -54c-32 0 -55 23 -55 54s23 55 55 55c31 0 54 -24 54 -55zM298.021 448.16l199.604 301.84h107.98l-262.604 -386.696v-363.304h-90v363.313 l-261.563 386.687h107.954z" />
<glyph unicode="&#x2044;" horiz-adv-x="358" d="M337 760h72l-387 -770h-72z" />
<glyph unicode="&#xa4;" horiz-adv-x="630" d="M567.714 476.571c-0.214844 -0.214844 -0.106445 -0.105469 -0.320312 -0.319336l-34.7061 -33.9277c33.8496 -54.0293 47.3125 -95.5342 47.3125 -148.148c0 -52.5088 -14.4189 -95.6445 -47.3135 -148.149l41.4551 -40.5264l-58.0576 -56.7568l-43.2891 41.3115 c-54.2402 -34.5098 -98.1445 -50.0537 -157.796 -50.0537c-59.6367 0 -105.011 16.4756 -157.796 50.0713l-43.2891 -41.3262l-58.0576 56.7754l41.4551 40.54c-33.8496 54.0479 -47.3125 95.5674 -47.3125 148.199c0 52.5264 14.4189 95.6768 47.3135 148.199 l-41.4551 40.54l58.0576 58.0576l43.2891 -42.2588c54.2402 35.3008 98.1445 51.2012 157.796 51.2012c59.6367 0 105.011 -16.8467 157.796 -51.2012l43.2891 42.2588l58.0576 -58.0576zM315.001 131.002c95.1387 0 173.036 77.292 173.036 167.583 c0 91.5303 -75.2969 160.417 -173.036 160.417c-98.7686 0 -174.036 -68.9111 -174.036 -160.418c0 -1.11914 0.0117188 -2.27246 0.0341797 -3.37988c1.88672 -87.8965 78.5605 -164.202 174.002 -164.202z" />
<glyph unicode="&#x2039;" horiz-adv-x="255" d="M229.717 326.285l-92.4951 -88.5166l93.5244 -95.5137l-53.4775 -58.8252l-153.49 156.803l153.981 147.335z" />
<glyph unicode="&#x203a;" horiz-adv-x="255" d="M26.3701 326.202l50.7471 61.4307l155.13 -147.374l-153.516 -156.829l-53.4775 58.8252l93.5244 95.5137z" />
<glyph unicode="&#xfb01;" horiz-adv-x="597" d="M460 657c34.4834 0 62 -27.5166 62 -62s-27.5166 -62 -62 -62s-62 27.5166 -62 62s27.5166 62 62 62zM415 0v470h90v-470h-90zM307.856 755.741l5.14355 -2.85742v-103.986l-16.332 13.3633c-9.12305 7.46387 -20.6572 11.7393 -35.668 11.7393 c-33.5137 0 -60 -26.4873 -60 -60v-144h112v-90h-112v-380h-90v380h-71v90h71v144c0 82.5381 67.4619 150 150 150c19.5693 0 35.0947 -1.72461 46.8564 -8.25879z" />
<glyph unicode="&#xfb02;" horiz-adv-x="573" d="M493 750v-750h-90v750h90zM307.856 755.741l5.14355 -2.85742v-103.986l-16.332 13.3633c-9.12305 7.46387 -20.6572 11.7393 -35.668 11.7393c-33.5137 0 -60 -26.4873 -60 -60v-144h112v-90h-112v-380h-90v380h-71v90h71v144c0 82.5381 67.4619 150 150 150 c19.5693 0 35.0947 -1.72461 46.8564 -8.25879z" />
<glyph unicode="&#x2021;" horiz-adv-x="418" d="M368 224v-73h-126v-231h-72v231h-120v73h120v222h-120v73h120v231h72v-231h126v-73h-126v-222h126z" />
<glyph unicode="&#xb7;" horiz-adv-x="-20" d="M51 239c0 -35 -25 -59 -60 -59c-33 0 -60 25 -60 59c0 32 27 59 60 59c35 0 60 -26 60 -59z" />
<glyph unicode="&#x201a;" horiz-adv-x="197" d="M89 101h93l-79 -218h-58z" />
<glyph unicode="&#x201e;" horiz-adv-x="317" d="M89 101h93l-79 -218h-58zM209 101h93l-79 -218h-58z" />
<glyph unicode="&#x2030;" horiz-adv-x="1008" d="M227 760c87.5049 0 159 -69.1523 159 -153c0 -84.8271 -71.5557 -153 -159 -153c-87.5088 0 -158 68.2607 -158 153c0 83.7598 70.4316 153 158 153zM59.8301 0l487.667 750h110.674l-487.667 -750h-110.674zM227.001 539c40.4922 0 73 30.2822 73 68 c0 37.7188 -32.5088 68 -73 68c-39.3984 0 -72 -30.2295 -72 -68s32.6025 -68 72 -68zM491.001 296c86.4971 0 158 -68.2021 158 -153c0 -83.8174 -71.4434 -153 -158 -153c-87.5049 0 -159 69.1523 -159 153c0 84.8271 71.5557 153 159 153zM819.001 296 c86.4971 0 158 -68.2021 158 -153c0 -83.8174 -71.4434 -153 -158 -153c-87.5049 0 -159 69.1523 -159 153c0 84.8271 71.5557 153 159 153zM491.001 75c38.6426 0 73 29.5674 73 68c0 38.4336 -34.3564 68 -73 68c-40.7139 0 -74 -29.5215 -74 -68 c0 -38.4814 33.2871 -68 74 -68zM819.001 75c38.6426 0 73 29.5674 73 68c0 38.4336 -34.3564 68 -73 68c-40.7139 0 -74 -29.5215 -74 -68c0 -38.4814 33.2871 -68 74 -68z" />
<glyph unicode="&#xc2;" horiz-adv-x="670" d="M271.936 855.665h-92.6982l114.407 148h82.7109l114.407 -148h-92.6982l-63.0645 78.2871zM-10.0889 0l345.089 795.665l345.089 -795.665h-101.721l-68 161h-349.736l-68 -161h-102.721zM335.03 570.084l-138.027 -331.084h276.956z" />
<glyph unicode="&#xca;" horiz-adv-x="542" d="M217.936 820h-92.6982l114.407 148h82.7109l114.407 -148h-92.6982l-63.0645 78.2871zM175 93h307v-93h-402v750h402v-93h-307v-235h268v-94h-268v-235z" />
<glyph unicode="&#xc1;" horiz-adv-x="670" d="M379.446 855.665h-88.8936l119.83 202h133.403zM-10.0889 0l345.089 795.665l345.089 -795.665h-101.721l-68 161h-349.736l-68 -161h-102.721zM335.03 570.084l-138.027 -331.084h276.956z" />
<glyph unicode="&#xcb;" horiz-adv-x="542" d="M247 874c0 -31 -23 -54 -54 -54c-32 0 -55 23 -55 54s23 55 55 55c31 0 54 -24 54 -55zM424 874c0 -31 -23 -54 -54 -54c-32 0 -55 23 -55 54s23 55 55 55c31 0 54 -24 54 -55zM175 93h307v-93h-402v750h402v-93h-307v-235h268v-94h-268v-235z" />
<glyph unicode="&#xc8;" horiz-adv-x="542" d="M236.553 820l-164.339 202h133.402l119.831 -202h-88.8945zM175 93h307v-93h-402v750h402v-93h-307v-235h268v-94h-268v-235z" />
<glyph unicode="&#xcd;" horiz-adv-x="250" d="M169.946 820h-88.8936l119.83 202h133.403zM78 750h95v-750h-95v750z" />
<glyph unicode="&#xce;" horiz-adv-x="250" d="M62.4355 820h-92.6982l114.407 148h82.7109l114.407 -148h-92.6982l-63.0645 78.2871zM78 750h95v-750h-95v750z" />
<glyph unicode="&#xcf;" horiz-adv-x="250" d="M91.5 874c0 -31 -23 -54 -54 -54c-32 0 -55 23 -55 54s23 55 55 55c31 0 54 -24 54 -55zM268.5 874c0 -31 -23 -54 -54 -54c-32 0 -55 23 -55 54s23 55 55 55c31 0 54 -24 54 -55zM78 750h95v-750h-95v750z" />
<glyph unicode="&#xcc;" horiz-adv-x="250" d="M81.0527 820l-164.339 202h133.402l119.831 -202h-88.8945zM78 750h95v-750h-95v750z" />
<glyph unicode="&#xd3;" horiz-adv-x="894" d="M491.446 820h-88.8936l119.83 202h133.403zM447 760c217.483 0 397 -172.906 397 -385c0 -213.072 -179.539 -385 -397 -385s-397 171.928 -397 385c0 212.094 179.517 385 397 385zM447 83c165.538 0 304 131.151 304 292s-138.462 292 -304 292 c-166.532 0 -304 -131.124 -304 -292c0 -160.849 138.462 -292 304 -292z" />
<glyph unicode="&#xd4;" horiz-adv-x="894" d="M383.936 820h-92.6982l114.407 148h82.7109l114.407 -148h-92.6982l-63.0645 78.2871zM447 760c217.483 0 397 -172.906 397 -385c0 -213.072 -179.539 -385 -397 -385s-397 171.928 -397 385c0 212.094 179.517 385 397 385zM447 83c165.538 0 304 131.151 304 292 s-138.462 292 -304 292c-166.532 0 -304 -131.124 -304 -292c0 -160.849 138.462 -292 304 -292z" />
<glyph unicode="&#xd2;" horiz-adv-x="894" d="M402.553 820l-164.339 202h133.402l119.831 -202h-88.8945zM447 760c217.483 0 397 -172.906 397 -385c0 -213.072 -179.539 -385 -397 -385s-397 171.928 -397 385c0 212.094 179.517 385 397 385zM447 83c165.538 0 304 131.151 304 292s-138.462 292 -304 292 c-166.532 0 -304 -131.124 -304 -292c0 -160.849 138.462 -292 304 -292z" />
<glyph unicode="&#xda;" horiz-adv-x="650" d="M369.446 820h-88.8936l119.83 202h133.403zM483 750h92v-534.923c0 -119.979 -110.977 -225.077 -250 -225.077c-137.007 0 -250 105.023 -250 225.077v534.923h92v-533.018c0 -66.8027 63.8975 -133.982 158 -133.982c96.0762 0 158 67.0674 158 133.982v533.018z" />
<glyph unicode="&#xdb;" horiz-adv-x="650" d="M261.936 820h-92.6982l114.407 148h82.7109l114.407 -148h-92.6982l-63.0645 78.2871zM483 750h92v-534.923c0 -119.979 -110.977 -225.077 -250 -225.077c-137.007 0 -250 105.023 -250 225.077v534.923h92v-533.018c0 -66.8027 63.8975 -133.982 158 -133.982 c96.0762 0 158 67.0674 158 133.982v533.018z" />
<glyph unicode="&#xd9;" horiz-adv-x="650" d="M280.553 820l-164.339 202h133.402l119.831 -202h-88.8945zM483 750h92v-534.923c0 -119.979 -110.977 -225.077 -250 -225.077c-137.007 0 -250 105.023 -250 225.077v534.923h92v-533.018c0 -66.8027 63.8975 -133.982 158 -133.982c96.0762 0 158 67.0674 158 133.982 v533.018z" />
<glyph unicode="&#x131;" horiz-adv-x="274" d="M92 0v470h90v-470h-90z" />
<glyph unicode="&#x2c6;" horiz-adv-x="-20" d="M-73.0645 555.5h-92.6982l114.407 148h82.7109l114.407 -148h-92.6982l-63.0645 78.2871z" />
<glyph unicode="&#x2dc;" horiz-adv-x="-20" d="M5.35449 651.708c16.46 -8.22949 39.9004 -21.21 54.6465 -21.21c15.0176 0 31.458 29.5088 41.5684 46.3594l3.06445 5.10742l76.4395 -24.6582l-4.55176 -8.0127c-37.916 -66.748 -76.1553 -89.5273 -113.75 -89.5273c-57.5498 0 -107.609 49.7324 -143.771 49.7324 c-14.8877 0 -30.3809 -29.2529 -40.4629 -47.1768l-3.0498 -5.42285l-76.8701 26.0371l5.02344 8.03809c35.3945 56.6309 67.3545 87.5176 113.343 87.5176c25.3809 0 53.7871 -9.31055 88.3711 -26.7842z" />
<glyph unicode="&#xaf;" horiz-adv-x="383" d="M371 581.5h-359v55h359v-55z" />
<glyph unicode="&#x2d8;" horiz-adv-x="-20" d="M-75.5 752.5c0 -30.2979 12.2334 -39.5 65.5 -39.5c53.2705 0 65.5 9.21387 65.5 39.5v7.5h77v-7.5c0 -84.1709 -72.2715 -107.5 -142.5 -107.5s-142.5 23.3291 -142.5 107.5v7.5h77v-7.5z" />
<glyph unicode="&#x2d9;" horiz-adv-x="0" d="M0 663.5c35.9668 0 64.5 -28.4746 64.5 -64.5c0 -35.9668 -28.4746 -64.5 -64.5 -64.5c-35.9668 0 -64.5 28.4746 -64.5 64.5c0 35.9668 28.4746 64.5 64.5 64.5z" />
<glyph unicode="&#x2da;" horiz-adv-x="-20" d="M-10 548.5c-49.0811 0 -88.5 39.3037 -88.5 87.5c0 49.124 39.375 88.5 88.5 88.5c48.1064 0 88.5 -39.2949 88.5 -88.5c0 -48.2764 -40.4375 -87.5 -88.5 -87.5zM-10 669.5c-18.7422 0 -32.5 -14.3447 -32.5 -33.5c0 -18.0215 13.6904 -32.5 32.5 -32.5 c17.8447 0 32.5 14.6543 32.5 32.5c0 18.9922 -14.7393 33.5 -32.5 33.5z" />
<glyph unicode="&#xb8;" horiz-adv-x="579" d="M284 4l30 -4.00098c-13 0 -20 -23 -23 -37c47 0 90 -19 90 -71c0 -81 -54 -87 -120 -87v49c1.48926 0 2.96973 -0.00195312 4.43945 -0.00195312c33.0596 0 60.5605 0.916992 60.5605 44.002c0 35.1152 -20.8076 45.5693 -49.5693 45.5693 c-4.00098 0 -8.15625 -0.202148 -12.4307 -0.568359z" />
<glyph unicode="&#x2dd;" horiz-adv-x="-20" d="M-122.39 568l107.967 182h105.657l-147.04 -182h-66.584zM27.6328 568l106.938 182h106.664l-147.039 -182h-66.5625z" />
<glyph unicode="&#x2db;" horiz-adv-x="-20" d="M-10 5l40 -5c-32 0 -85 -62 -85 -106c0 -39 34 -42 66 -42v-48c-51 0 -123 13 -123 78c0 53 60 100 102 123z" />
<glyph unicode="&#x2c7;" horiz-adv-x="-20" d="M-73.0645 703.5l63.0645 -78.2871l63.0645 78.2871h92.6982l-114.407 -148h-82.7109l-114.407 148h92.6982z" />
<glyph unicode="&#x141;" horiz-adv-x="446" d="M175 425.539l43.5654 25.3672l43.1016 -72.25l-86.667 -48.6396v-237.017h241v-93h-336v274.131l-52.6396 -30.416l-41.9238 71.46l94.5635 54.6572v380.168h95v-324.461z" />
<glyph unicode="&#x142;" horiz-adv-x="255" d="M175 424.346l43.5654 25.4609l43.1016 -72.5156l-86.667 -48.8193v-328.472h-95v274.131l-52.6396 -30.416l-41.9238 71.46l94.5635 54.6572v380.168h95v-325.654z" />
<glyph unicode="&#x3bc;" horiz-adv-x="544" d="M365 470l84.999 0.00195312v-480h-85v17.7158c-32.8643 -21.2246 -62.2598 -27.7158 -92.999 -27.7158c-29.9609 0 -60.1807 7.21973 -92 27.7129v-212.714h-85v675h85v-302.857c0 -56.3916 42.1416 -97.1436 92 -97.1436c49.9531 0 93 40.874 93 97.1426v302.857z" />
<glyph unicode="&#xd0;" horiz-adv-x="715" d="M258 0h-179v326h-82v85h82v339h179c235.598 0 396 -137.786 396 -373.052c0 -234.189 -160.229 -376.948 -396 -376.948zM175 411h147v-85h-147v-233h83c186.386 0 303 101.791 303 283.932c0 182.981 -116.398 280.068 -303 280.068h-83v-246z" />
<glyph unicode="&#xa6;" horiz-adv-x="200" d="M137 840v-488h-75v488h75zM137 247v-488h-75v488h75z" />
<glyph unicode="&#x2212;" horiz-adv-x="468" d="M408 271v-65h-348v65h348z" />
<glyph unicode="&#xd7;" horiz-adv-x="637" d="M361 235l175 -175l-43 -44l-176 176l-175 -176l-43 44l175 175l-175 175l43 44l175 -176l176 176l43 -44z" />
<glyph unicode="&#x160;" horiz-adv-x="543" d="M219.936 968l63.0645 -78.2871l63.0645 78.2871h92.6982l-114.407 -148h-82.7109l-114.407 148h92.6982zM474.16 649.78l-85.1826 -41.75c-30.4346 40.8955 -66.207 57.9697 -105.978 57.9697c-69.4492 0 -128 -56.9561 -128 -123.351 c0 -54.7432 43.0693 -82.4268 103.054 -108.644c100.188 -42.5146 244.946 -77.7129 244.946 -229.356c0 -128.127 -122.831 -214.649 -244 -214.649c-87.707 0 -179.178 49.1045 -228.886 145.413l84.6592 38.3848c33.2178 -60.7393 91.8262 -89.7979 144.227 -89.7979 c72.4414 0 151 51.1328 151 123.351c0 77.3613 -96.0586 109.048 -166.808 137.68c-85.8516 33.9355 -181.192 82.0781 -181.192 200.32c0 119.066 100.511 214.649 221 214.649c71.6152 0 138.708 -36.1699 191.16 -110.22z" />
<glyph unicode="&#xdd;" horiz-adv-x="597" d="M342.968 820h-88.8936l119.83 202h133.402zM298.021 448.16l199.604 301.84h107.98l-262.604 -386.696v-363.304h-90v363.313l-261.563 386.687h107.954z" />
<glyph unicode="&#x17d;" horiz-adv-x="628" d="M260.535 968l63.0645 -78.2871l63.0645 78.2871h92.6982l-114.407 -148h-82.7109l-114.407 148h92.6982zM606.2 750l-432 -662.338h423.8v-87.6621h-586.178l431 660h-401.822v90h565.2z" />
<glyph unicode="&#x161;" horiz-adv-x="383" d="M128.936 688l63.0645 -78.2871l63.0645 78.2871h92.6982l-114.407 -148h-82.7109l-114.407 148h92.6982zM329.116 391.111l-82.1318 -36.4385c-10.3828 21.6309 -31.9629 35.3271 -54.9844 35.3271c-33.5137 0 -60 -25.2256 -60 -57.1426 c0 -68.4385 221 -47.2734 221 -200c0 -84.5566 -81.6836 -142.857 -164 -142.857c-67.6406 0 -138.091 41.0381 -158.599 111.194l84.5088 32.1445c4.05664 -30.0205 40.4209 -53.3389 74.0898 -53.3389c36.75 0 74 23.6182 74 57.1426c0 69.4834 -221 48.1387 -221 200 c0 78.6074 67.4619 142.857 150 142.857c59.918 0 112.537 -34.3887 137.116 -88.8887z" />
<glyph unicode="&#xfd;" horiz-adv-x="530" d="M309.144 540h-88.8936l119.83 202h133.402zM202.614 -245h-98.8311l122.252 275.14l-211.761 439.86h102.188l157.065 -348.609l141.742 348.609h99.8477z" />
<glyph unicode="&#x17e;" horiz-adv-x="487" d="M196.445 688l63.0645 -78.2871l63.0645 78.2871h92.6982l-114.407 -148h-82.7109l-114.407 148h92.6982zM42 470h435.02l-305 -386h293.98v-84h-456v16.6533l293.87 371.816h-261.87v81.5303z" />
<glyph horiz-adv-x="637" d="M637 611v-65h-305v65h305z" />
<glyph horiz-adv-x="-20" d="M143 401v-65h-305v65h305z" />
<glyph horiz-adv-x="250" d="M215 438l33 -57l-217 -127l-32 56z" />
<glyph unicode="&#x104;" horiz-adv-x="670" d="M335.03 570.084l-138.027 -331.084h276.956zM-10.0889 0l345.089 795.665l345.089 -795.665s-137.089 -28 -137.089 -104.3c0 -39 34 -42 66 -42v-48c-51 0 -123 13 -123 78c0 53 50.3682 93.2998 92.3682 116.3l-68 161h-349.736l-68 -161h-102.721z" />
<glyph unicode="&#x13d;" horiz-adv-x="446" d="M328 522l48.0371 238h116.505l-87.3398 -238h-77.2021zM175 93h241v-93h-336v750h95v-657z" />
<glyph unicode="&#x15a;" horiz-adv-x="543" d="M327.446 820h-88.8936l119.83 202h133.403zM474.16 649.78l-85.1826 -41.75c-30.4346 40.8955 -66.207 57.9697 -105.978 57.9697c-69.4492 0 -128 -56.9561 -128 -123.351c0 -54.7432 43.0693 -82.4268 103.054 -108.644 c100.188 -42.5146 244.946 -77.7129 244.946 -229.356c0 -128.127 -122.831 -214.649 -244 -214.649c-87.707 0 -179.178 49.1045 -228.886 145.413l84.6592 38.3848c33.2178 -60.7393 91.8262 -89.7979 144.227 -89.7979c72.4414 0 151 51.1328 151 123.351 c0 77.3613 -96.0586 109.048 -166.808 137.68c-85.8516 33.9355 -181.192 82.0781 -181.192 200.32c0 119.066 100.511 214.649 221 214.649c71.6152 0 138.708 -36.1699 191.16 -110.22z" />
<glyph unicode="&#x15e;" horiz-adv-x="543" d="M474.16 649.78l-85.1816 -41.752c-30.4346 40.8955 -66.207 57.9697 -105.978 57.9697c-69.4492 0 -128 -56.9561 -128 -123.351c0 -54.7432 43.0693 -82.4268 103.054 -108.644c100.188 -42.5146 244.946 -77.7129 244.946 -229.356 c0 -125.345 -117.556 -210.872 -236.107 -214.526c-8.53711 -6.3418 -13.4941 -23.292 -15.8936 -34.4873c47 0 90 -19 90 -71c0 -81 -54 -87 -120 -87v49c1.48926 0 2.96973 -0.00195312 4.43945 -0.00195312c33.0596 0 60.5605 0.916016 60.5605 44.002 c0 35.1143 -20.8076 45.5684 -49.5693 45.5684c-4.00098 0 -8.15625 -0.202148 -12.4307 -0.568359l18.0254 54.9766c-82.3369 5.9082 -165.403 54.6943 -211.911 144.803l84.6592 38.3848c33.2178 -60.7393 91.8262 -89.7979 144.227 -89.7979 c72.4414 0 151 51.1328 151 123.351c0 56.7246 -44.0469 83.3799 -103.355 111.693c-20.3438 9.40918 -39.3398 16.2285 -63.4521 25.9863c-85.8516 33.9355 -181.192 82.0781 -181.192 200.32c0 119.066 100.511 214.649 221 214.649 c71.6152 0 138.708 -36.1699 191.16 -110.22z" />
<glyph unicode="&#x164;" horiz-adv-x="473" d="M173.436 968l63.0645 -78.2871l63.0645 78.2871h92.6982l-114.407 -148h-82.7109l-114.407 148h92.6982zM-5 750h483v-93h-197v-657h-89v657h-197v93z" />
<glyph unicode="&#x179;" horiz-adv-x="628" d="M368.047 820h-88.8945l119.831 202h133.402zM606.2 750l-432 -662.338h423.8v-87.6621h-586.178l431 660h-401.822v90h565.2z" />
<glyph unicode="&#x17b;" horiz-adv-x="628" d="M323.6 949c35.9678 0 64.5 -28.4746 64.5 -64.5c0 -35.9668 -28.4746 -64.5 -64.5 -64.5c-35.9668 0 -64.5 28.4746 -64.5 64.5c0 35.9668 28.4756 64.5 64.5 64.5zM606.2 750l-432 -662.338h423.8v-87.6621h-586.178l431 660h-401.822v90h565.2z" />
<glyph unicode="&#x105;" d="M495 -3.2998l40 -5c-32 0 -85 -62 -85 -106c0 -39 34 -42 66 -42v-48c-51 0 -123 13 -123 78c0 53 60 100 102 123zM560 0h-90v50.5352c-45.9971 -39.7578 -105.271 -60.5352 -165 -60.5352c-140.53 0 -255 109.98 -255 245s114.47 245 255 245 c59.9355 0 120.176 -21.791 165 -60.5352v50.5352h90v-470zM470 235c0 84.9707 -74.5479 155 -165 155s-165 -70.0303 -165 -155c0 -84.9707 74.5479 -155 165 -155s165 70.0303 165 155z" />
<glyph unicode="&#x13e;" horiz-adv-x="250" d="M215 512l48.0371 238h116.505l-87.3398 -238h-77.2021zM170 750v-750h-90v750h90z" />
<glyph unicode="&#x15b;" horiz-adv-x="383" d="M236.446 540h-88.8936l119.83 202h133.403zM329.116 391.111l-82.1318 -36.4385c-10.3828 21.6309 -31.9629 35.3271 -54.9844 35.3271c-33.5137 0 -60 -25.2256 -60 -57.1426c0 -68.4385 221 -47.2734 221 -200c0 -84.5566 -81.6836 -142.857 -164 -142.857 c-67.6406 0 -138.091 41.0381 -158.599 111.194l84.5088 32.1445c4.05664 -30.0205 40.4209 -53.3389 74.0898 -53.3389c36.75 0 74 23.6182 74 57.1426c0 69.4834 -221 48.1387 -221 200c0 78.6074 67.4619 142.857 150 142.857 c59.918 0 112.537 -34.3887 137.116 -88.8887z" />
<glyph unicode="&#x15f;" horiz-adv-x="383" d="M329.116 391.111l-82.1328 -36.4375c-10.3828 21.6309 -31.9629 35.3271 -54.9844 35.3271c-33.5137 0 -60 -25.2256 -60 -57.1426c0 -68.4385 221 -47.2734 221 -200c0 -81.8242 -76.4902 -139.062 -156.025 -142.676 c-8.58691 -6.29492 -13.5674 -23.3174 -15.9736 -34.5479c47 0 90 -19 90 -71c0 -81 -54 -87 -120 -87v49c1.48926 0 2.96973 -0.00195312 4.43945 -0.00195312c33.0596 0 60.5605 0.916016 60.5605 44.002c0 35.1143 -20.8076 45.5684 -49.5693 45.5684 c-4.00098 0 -8.15625 -0.202148 -12.4307 -0.568359l18.1016 55.21c-62.1113 6.18066 -122.897 46.0264 -141.7 110.35l84.5088 32.1445c4.05664 -30.0205 40.4209 -53.3389 74.0898 -53.3389c36.75 0 74 23.6182 74 57.1426c0 69.4834 -221 48.1387 -221 200 c0 78.6074 67.4619 142.857 150 142.857c59.918 0 112.537 -34.3887 137.116 -88.8887z" />
<glyph unicode="&#x165;" horiz-adv-x="338" d="M262 527l48.0371 238h116.505l-87.3398 -238h-77.2021zM40 470h81v167h90v-167h87v-90h-87v-380h-90v380h-81v90z" />
<glyph unicode="&#x17a;" horiz-adv-x="487" d="M303.957 540h-88.8945l119.831 202h133.402zM42 470h435.02l-305 -386h293.98v-84h-456v16.6533l293.87 371.816h-261.87v81.5303z" />
<glyph unicode="&#x17c;" horiz-adv-x="487" d="M259.51 669c35.9678 0 64.5 -28.4746 64.5 -64.5c0 -35.9668 -28.4746 -64.5 -64.5 -64.5c-35.9668 0 -64.5 28.4746 -64.5 64.5c0 35.9668 28.4746 64.5 64.5 64.5zM42 470h435.02l-305 -386h293.98v-84h-456v16.6533l293.87 371.816h-261.87v81.5303z" />
<glyph unicode="&#x154;" horiz-adv-x="581" d="M241.946 820h-88.8936l119.83 202h133.403zM533 535.714c0 -84.1182 -51.3916 -159.758 -139.239 -196.937l173.398 -338.777h-103.348l-165 331h-123.812v-331h-95v750h235c119.595 0 218 -95.9639 218 -214.286zM175 657v-242h140c70.5586 0 126 53.3281 126 120.04 c0 65.8975 -55.7021 121.96 -126 121.96h-140z" />
<glyph unicode="&#x102;" horiz-adv-x="670" d="M269.5 963.165c0 -30.2979 12.2334 -39.5 65.5 -39.5c53.2705 0 65.5 9.21387 65.5 39.5v7.5h77v-7.5c0 -84.1709 -72.2715 -107.5 -142.5 -107.5s-142.5 23.3291 -142.5 107.5v7.5h77v-7.5zM-10.0889 0l345.089 795.665l345.089 -795.665h-101.721l-68 161h-349.736 l-68 -161h-102.721zM335.03 570.084l-138.027 -331.084h276.956z" />
<glyph unicode="&#x139;" horiz-adv-x="446" d="M171.446 820h-88.8936l119.83 202h133.403zM175 93h241v-93h-336v750h95v-657z" />
<glyph unicode="&#x106;" horiz-adv-x="761" d="M499.446 820h-88.8936l119.83 202h133.403zM671.5 172.599l67.4414 -62.7969c-85.6797 -82.6201 -182.397 -119.802 -283.941 -119.802c-217.533 0 -395 172.975 -395 385s177.467 385 395 385c98.5068 0 197.179 -36.1016 282.941 -118.802l-66.5791 -63.6777 c-78.4424 69.6172 -146.537 89.4795 -216.362 89.4795c-166.472 0 -302 -131.041 -302 -292s135.528 -292 302 -292c69.7656 0 134.873 19.7744 216.5 89.5986z" />
<glyph unicode="&#x10c;" horiz-adv-x="761" d="M391.936 968l63.0645 -78.2871l63.0645 78.2871h92.6982l-114.407 -148h-82.7109l-114.407 148h92.6982zM671.5 172.599l67.4414 -62.7969c-85.6797 -82.6201 -182.397 -119.802 -283.941 -119.802c-217.533 0 -395 172.975 -395 385s177.467 385 395 385 c98.5068 0 197.179 -36.1016 282.941 -118.802l-66.5791 -63.6777c-78.4424 69.6172 -146.537 89.4795 -216.362 89.4795c-166.472 0 -302 -131.041 -302 -292s135.528 -292 302 -292c69.7656 0 134.873 19.7744 216.5 89.5986z" />
<glyph unicode="&#x118;" horiz-adv-x="542" d="M175 93h307v-93c-32 0 -85 -62 -85 -106c0 -39 34 -42 66 -42v-48c-51 0 -123 13 -123 78c0 49.4092 52.1445 93.6035 93.2393 118h-353.239v750h402v-93h-307v-235h268v-94h-268v-235z" />
<glyph unicode="&#x11a;" horiz-adv-x="542" d="M217.936 968l63.0645 -78.2871l63.0645 78.2871h92.6982l-114.407 -148h-82.7109l-114.407 148h92.6982zM175 93h307v-93h-402v750h402v-93h-307v-235h268v-94h-268v-235z" />
<glyph unicode="&#x10e;" horiz-adv-x="695" d="M304.436 968l63.0645 -78.2871l63.0645 78.2871h92.6982l-114.407 -148h-82.7109l-114.407 148h92.6982zM80 0v750h179c235.598 0 396 -137.786 396 -373.052c0 -234.189 -160.229 -376.948 -396 -376.948h-179zM176 657v-564h83c186.416 0 303 100.831 303 283.932 c0 182.981 -116.398 280.068 -303 280.068h-83z" />
<glyph unicode="&#x110;" horiz-adv-x="715" d="M258 0h-179v326h-82v85h82v339h179c235.598 0 396 -137.786 396 -373.052c0 -234.189 -160.229 -376.948 -396 -376.948zM175 411h147v-85h-147v-233h83c186.386 0 303 101.791 303 283.932c0 182.981 -116.398 280.068 -303 280.068h-83v-246z" />
<glyph unicode="&#x143;" horiz-adv-x="740" d="M124.446 858.462h-88.8936l119.83 202h133.403zM569 188.462v561.538h91v-805.208l-489 603v-548.792h-91v799.462z" />
<glyph unicode="&#x147;" horiz-adv-x="740" d="M16.9355 1006.46l63.0645 -78.2871l63.0645 78.2871h92.6982l-114.407 -148h-82.7109l-114.407 148h92.6982zM569 188.462v561.538h91v-805.208l-489 603v-548.792h-91v799.462z" />
<glyph unicode="&#x150;" horiz-adv-x="894" d="M338.708 820l107.966 182h105.658l-147.04 -182h-66.584zM488.729 820l106.938 182h106.665l-147.04 -182h-66.5625zM447 760c217.483 0 397 -172.906 397 -385c0 -213.072 -179.539 -385 -397 -385s-397 171.928 -397 385c0 212.094 179.517 385 397 385zM447 83 c165.538 0 304 131.151 304 292s-138.462 292 -304 292c-166.532 0 -304 -131.124 -304 -292c0 -160.849 138.462 -292 304 -292z" />
<glyph unicode="&#x158;" horiz-adv-x="581" d="M134.436 968l63.0645 -78.2871l63.0645 78.2871h92.6982l-114.407 -148h-82.7109l-114.407 148h92.6982zM533 535.714c0 -84.1182 -51.3916 -159.758 -139.239 -196.937l173.398 -338.777h-103.348l-165 331h-123.812v-331h-95v750h235 c119.595 0 218 -95.9639 218 -214.286zM175 657v-242h140c70.5586 0 126 53.3281 126 120.04c0 65.8975 -55.7021 121.96 -126 121.96h-140z" />
<glyph unicode="&#x16e;" horiz-adv-x="650" d="M325 820c-49.0811 0 -88.5 39.3037 -88.5 87.5c0 49.124 39.375 88.5 88.5 88.5c48.1064 0 88.5 -39.2949 88.5 -88.5c0 -48.2764 -40.4375 -87.5 -88.5 -87.5zM325 941c-18.7422 0 -32.5 -14.3447 -32.5 -33.5c0 -18.0215 13.6904 -32.5 32.5 -32.5 c17.8447 0 32.5 14.6543 32.5 32.5c0 18.9922 -14.7393 33.5 -32.5 33.5zM483 750h92v-534.923c0 -119.979 -110.977 -225.077 -250 -225.077c-137.007 0 -250 105.023 -250 225.077v534.923h92v-533.018c0 -66.8027 63.8975 -133.982 158 -133.982 c96.0762 0 158 67.0674 158 133.982v533.018z" />
<glyph unicode="&#x170;" horiz-adv-x="650" d="M216.708 820l107.966 182h105.658l-147.04 -182h-66.584zM366.729 820l106.938 182h106.665l-147.04 -182h-66.5625zM483 750h92v-534.923c0 -119.979 -110.977 -225.077 -250 -225.077c-137.007 0 -250 105.023 -250 225.077v534.923h92v-533.018 c0 -66.8027 63.8975 -133.982 158 -133.982c96.0762 0 158 67.0674 158 133.982v533.018z" />
<glyph unicode="&#x162;" horiz-adv-x="473" d="M-5 750l483 -0.000976562v-93h-197v-657h-36.7686c-8.43848 -6.43457 -13.3477 -23.2412 -15.7314 -34.3652c47 0 90 -19 90 -71c0 -81 -54 -87 -120 -87v49c1.48926 0 2.96973 -0.00195312 4.43945 -0.00195312c33.0596 0 60.5605 0.916016 60.5605 44.002 c0 35.1143 -20.8076 45.5684 -49.5693 45.5684c-4.00098 0 -8.15625 -0.202148 -12.4307 -0.568359l17.8252 54.3662h-27.3252v657h-197v93z" />
<glyph unicode="&#x155;" horiz-adv-x="365" d="M256.946 540.146h-88.8936l119.83 202h133.403zM80 0v470h90v-39.9717c27.415 31.8555 65.2705 50.1172 109.055 50.1172c18.96 0 44.9453 -4.14551 65.9453 -13.0859v-90.9756l-13.1895 4.43848c-19.0684 6.41699 -36.7295 9.40723 -52.7305 9.40723 c-65.7812 0 -109.08 -47.9209 -109.08 -134.054v-255.876h-90z" />
<glyph unicode="&#x103;" d="M239.5 647.5c0 -30.2979 12.2334 -39.5 65.5 -39.5c53.2705 0 65.5 9.21387 65.5 39.5v7.5h77v-7.5c0 -84.1709 -72.2715 -107.5 -142.5 -107.5s-142.5 23.3291 -142.5 107.5v7.5h77v-7.5zM560 0h-90v50.5352c-45.9971 -39.7578 -105.271 -60.5352 -165 -60.5352 c-140.53 0 -255 109.98 -255 245s114.47 245 255 245c59.9355 0 120.176 -21.791 165 -60.5352v50.5352h90v-470zM470 235c0 84.9707 -74.5479 155 -165 155s-165 -70.0303 -165 -155c0 -84.9707 74.5479 -155 165 -155s165 70.0303 165 155z" />
<glyph unicode="&#x13a;" horiz-adv-x="250" d="M169.446 810h-88.8936l119.83 202h133.403zM170 750v-750h-90v750h90z" />
<glyph unicode="&#x107;" horiz-adv-x="580" d="M349.446 540h-88.8936l119.83 202h133.403zM455.786 178.887l82.4326 -36.7627c-38.6709 -91.9717 -134.307 -152.124 -233.219 -152.124c-140.53 0 -255 109.98 -255 245s114.47 245 255 245c102.101 0 192.582 -61.4756 234.121 -153.9l-82.2822 -35.1074 c-26.3789 60.293 -86.7783 99.0078 -151.839 99.0078c-90.4521 0 -165 -70.0303 -165 -155c0 -84.9707 74.5479 -155 165 -155c65.0801 0 125.405 38.7236 150.786 98.8867z" />
<glyph unicode="&#x10d;" horiz-adv-x="580" d="M241.936 688l63.0645 -78.2871l63.0645 78.2871h92.6982l-114.407 -148h-82.7109l-114.407 148h92.6982zM455.786 178.887l82.4326 -36.7627c-38.6709 -91.9717 -134.307 -152.124 -233.219 -152.124c-140.53 0 -255 109.98 -255 245s114.47 245 255 245 c102.101 0 192.582 -61.4756 234.121 -153.9l-82.2822 -35.1074c-26.3789 60.293 -86.7783 99.0078 -151.839 99.0078c-90.4521 0 -165 -70.0303 -165 -155c0 -84.9707 74.5479 -155 165 -155c65.0801 0 125.405 38.7236 150.786 98.8867z" />
<glyph unicode="&#x119;" horiz-adv-x="610" d="M305 390c-62.2812 0 -119.39 -33.0518 -148.57 -85h297.141c-29.749 52.9609 -86.6885 85 -148.57 85zM560 234.623v-9.62402h-419.696c5.40527 -80.6807 77.6934 -145 164.696 -145c65.0801 0 125.405 38.7236 150.786 98.8867l82.4326 -36.7627 c-37.2529 -88.5977 -127.368 -147.668 -222.351 -151.882c-32.0117 -9.5957 -75.8691 -64.5156 -75.8691 -104.541c0 -39 34 -42 66 -42v-48c-51 0 -123 13 -123 78c0 49.3242 51.9658 93.4512 93.0273 117.874c-126.957 13.8779 -226.026 117.816 -226.026 243.426 c0 135.02 114.47 245 255 245s255 -110.15 255 -245.377z" />
<glyph unicode="&#x11b;" horiz-adv-x="610" d="M241.936 688l63.0645 -78.2871l63.0645 78.2871h92.6982l-114.407 -148h-82.7109l-114.407 148h92.6982zM560 234.623v-9.62305h-419.696c5.40527 -80.6807 77.6934 -145 164.696 -145c65.0801 0 125.405 38.7236 150.786 98.8867l82.4326 -36.7627 c-38.6709 -91.9717 -134.307 -152.124 -233.219 -152.124c-140.53 0 -255 109.98 -255 245s114.47 245 255 245s255 -110.15 255 -245.377zM305 390c-62.2812 0 -119.39 -33.0518 -148.57 -85h297.141c-29.749 52.9609 -86.6885 85 -148.57 85z" />
<glyph unicode="&#x10f;" d="M650 512l48.0371 238h116.505l-87.3398 -238h-77.2021zM560 0h-90v50.5352c-45.9971 -39.7578 -105.271 -60.5352 -165 -60.5352c-140.53 0 -255 109.98 -255 245s114.47 245 255 245c59.9355 0 120.176 -21.791 165 -60.5352v330.535h90v-750zM470 235 c0 84.9707 -74.5479 155 -165 155s-165 -70.0303 -165 -155c0 -84.9707 74.5479 -155 165 -155s165 70.0303 165 155z" />
<glyph unicode="&#x111;" horiz-adv-x="637" d="M647 546l-90 0.000976562v-546h-90v50.7188c-45.1973 -38.7812 -101.866 -60.7197 -165 -60.7197c-140.53 0 -255 109.98 -255 245s114.47 245 255 245c63.335 0 120.98 -22.9482 165 -60.7188v126.719h-145v65h145v139h90v-139h90v-65zM302 82.001 c89.4561 0 163 69.0322 163 153s-73.5439 153 -163 153c-88.4111 0 -162 -69.0068 -162 -153s73.5889 -153 162 -153z" />
<glyph unicode="&#x144;" horiz-adv-x="535" d="M316.946 540h-88.8936l119.83 202h133.403zM285 480c108.25 0 180 -84.9619 180 -184.32v-295.68h-90v292.976c0 52.5322 -40.1299 97.0244 -97 97.0244c-55.3076 0 -108 -42.4209 -108 -94.1709v-295.829h-90v470h90v-33.0039 c32.3057 29.4658 73.1416 43.0039 115 43.0039z" />
<glyph unicode="&#x148;" horiz-adv-x="535" d="M209.436 688l63.0645 -78.2871l63.0645 78.2871h92.6982l-114.407 -148h-82.7109l-114.407 148h92.6982zM285 480c108.25 0 180 -84.9619 180 -184.32v-295.68h-90v292.976c0 52.5322 -40.1299 97.0244 -97 97.0244c-55.3076 0 -108 -42.4209 -108 -94.1709v-295.829h-90 v470h90v-33.0039c32.3057 29.4658 73.1416 43.0039 115 43.0039z" />
<glyph unicode="&#x151;" horiz-adv-x="610" d="M196.708 540l107.966 182h105.658l-147.04 -182h-66.584zM346.729 540l106.938 182h106.665l-147.04 -182h-66.5625zM560 235c0 -135.02 -114.47 -245 -255 -245s-255 109.98 -255 245s114.47 245 255 245s255 -109.98 255 -245zM470 235 c0 84.9707 -74.5479 155 -165 155s-165 -70.0303 -165 -155c0 -84.9707 74.5479 -155 165 -155s165 70.0303 165 155z" />
<glyph unicode="&#x159;" horiz-adv-x="365" d="M149.436 688.146l63.0645 -78.2871l63.0645 78.2871h92.6982l-114.407 -148h-82.7109l-114.407 148h92.6982zM80 0v470h90v-39.9717c27.415 31.8555 65.2705 50.1172 109.055 50.1172c18.96 0 44.9453 -4.14551 65.9453 -13.0859v-90.9756l-13.1895 4.43848 c-19.0684 6.41699 -36.7295 9.40723 -52.7305 9.40723c-65.7812 0 -109.08 -47.9209 -109.08 -134.054v-255.876h-90z" />
<glyph unicode="&#x16f;" horiz-adv-x="517" d="M258.5 540c-49.0811 0 -88.5 39.3037 -88.5 87.5c0 49.124 39.375 88.5 88.5 88.5c48.1064 0 88.5 -39.2949 88.5 -88.5c0 -48.2764 -40.4375 -87.5 -88.5 -87.5zM258.5 661c-18.7422 0 -32.5 -14.3447 -32.5 -33.5c0 -18.0215 13.6904 -32.5 32.5 -32.5 c17.8447 0 32.5 14.6543 32.5 32.5c0 18.9922 -14.7393 33.5 -32.5 33.5zM362 470h90v-294.72c0 -102.334 -87.5283 -185.28 -194 -185.28c-106.524 0 -193 83.0166 -193 185.28v294.72h90v-292.024c0 -52.6875 47.6104 -97.9756 103 -97.9756 c57.4434 0 104 45.252 104 97.9756v292.024z" />
<glyph unicode="&#x171;" horiz-adv-x="517" d="M150.208 540l107.966 182h105.658l-147.04 -182h-66.584zM300.229 540l106.938 182h106.665l-147.04 -182h-66.5625zM362 470h90v-294.72c0 -102.334 -87.5283 -185.28 -194 -185.28c-106.524 0 -193 83.0166 -193 185.28v294.72h90v-292.024 c0 -52.6875 47.6104 -97.9756 103 -97.9756c57.4434 0 104 45.252 104 97.9756v292.024z" />
<glyph unicode="&#x163;" horiz-adv-x="338" d="M40 470l81 -0.000976562v167h90v-167h87v-90h-87v-380h-37.2686c-8.43848 -6.43457 -13.3477 -23.2412 -15.7314 -34.3652c47 0 90 -19 90 -71c0 -81 -54 -87 -120 -87v49c1.48926 0 2.96973 -0.00195312 4.43945 -0.00195312c33.0596 0 60.5605 0.916016 60.5605 44.002 c0 35.1143 -20.8076 45.5684 -49.5693 45.5684c-4.00098 0 -8.15625 -0.202148 -12.4307 -0.568359l17.8252 54.3662h-27.8252v380h-81v90z" />
<glyph unicode="&#x3a9;" horiz-adv-x="933" d="M752.271 87.6924h111.729v-87.6924h-255.927l-19.9727 76.8789l7.25684 3.52539c114.661 59.4795 178.643 169.753 178.643 284.697c0 168.883 -133.977 304.898 -307 304.898s-307 -136.016 -307 -304.898c0 -114.944 63.9814 -225.218 178.643 -284.697 l7.25684 -3.52539l-19.9727 -76.8789h-255.927v90h111.729c-76.9453 87.6533 -111.729 181.212 -111.729 277.71c0 215.707 173.09 392.29 397 392.29s397 -177.191 397 -393.641c0 -96.9482 -35.833 -191.912 -111.729 -278.667z" />
<glyph unicode="&#x394;" horiz-adv-x="681" d="M32 0l315.448 523.881l314.332 -523.881h-629.78zM347.405 334.139l-156.58 -254.139h312.218z" />
<glyph unicode="&#x20ac;" horiz-adv-x="743" d="M513 90h170v-90h-170c-177 0 -327 103 -385 254h-68v91h49c-2 16 -2 25 -2 36c0 9 0 22 2 35h-49v91h68c60 149 210 243 385 243h170v-90h-170c-119 0 -223 -55 -283 -153h391v-91h-421c-2 -15 -2 -24 -2 -35c0 -12 0 -23 2 -36h421v-91h-393c60 -104 165 -164 285 -164z " />
<glyph horiz-adv-x="916" d="M836 378c0 -209 -169 -378 -378 -378s-378 169 -378 378s169 378 378 378s378 -169 378 -378zM801 378c0 190 -153 343 -343 343s-343 -153 -343 -343s153 -343 343 -343s343 153 343 343zM279 509v-262c0 -10 -8 -17 -18 -17c-9 0 -17 7 -17 17v262c0 10 8 18 17 18 c10 0 18 -8 18 -18zM475 509v-262c0 -10 -7 -17 -17 -17s-17 7 -17 17v262c0 10 7 18 17 18s17 -8 17 -18zM548 378l119 -119c7 -7 7 -18 0 -24c-7 -7 -18 -7 -24 0l-132 131c-6 7 -6 18 0 24l132 131c4 5 7 5 13 5h2c4 -1 5 -2 6 -2s1 -1 3 -3c7 -6 7 -17 0 -24zM327 395 h65c10 0 18 -7 18 -17s-8 -17 -18 -17h-65c-10 0 -17 7 -17 17s7 17 17 17z" />
</font>
</defs>
</svg>
